  0
SECTION
  2
HEADER
  9
$ACADVER
  1
AC1015
  9
$ACADMAINTVER
 70
     6
  9
$DWGCODEPAGE
  3
ANSI_1252
  9
$INSBASE
 10
0.0
 20
0.0
 30
0.0
  9
$EXTMIN
 10
0.0
 20
0.0
 30
0.0
  9
$EXTMAX
 10
17.0
 20
11.0
 30
0.0
  9
$LIMMIN
 10
0.0
 20
0.0
  9
$LIMMAX
 10
17.0
 20
11.0
  9
$ORTHOMODE
 70
     0
  9
$REGENMODE
 70
     1
  9
$FILLMODE
 70
     1
  9
$QTEXTMODE
 70
     0
  9
$MIRRTEXT
 70
     1
  9
$LTSCALE
 40
1.0
  9
$ATTMODE
 70
     1
  9
$TEXTSIZE
 40
0.125
  9
$TRACEWID
 40
0.05
  9
$TEXTSTYLE
  7
Standard
  9
$CLAYER
  8
0
  9
$CELTYPE
  6
ByLayer
  9
$CECOLOR
 62
   256
  9
$CELTSCALE
 40
1.0
  9
$DISPSILH
 70
     0
  9
$DIMSCALE
 40
1.0
  9
$DIMASZ
 40
0.13
  9
$DIMEXO
 40
0.05
  9
$DIMDLI
 40
0.38
  9
$DIMRND
 40
0.0
  9
$DIMDLE
 40
0.0
  9
$DIMEXE
 40
0.125
  9
$DIMTP
 40
0.0
  9
$DIMTM
 40
0.0
  9
$DIMTXT
 40
0.125
  9
$DIMCEN
 40
0.09
  9
$DIMTSZ
 40
0.0
  9
$DIMTOL
 70
     0
  9
$DIMLIM
 70
     0
  9
$DIMTIH
 70
     1
  9
$DIMTOH
 70
     1
  9
$DIMSE1
 70
     0
  9
$DIMSE2
 70
     0
  9
$DIMTAD
 70
     0
  9
$DIMZIN
 70
     1
  9
$DIMBLK
  1

  9
$DIMASO
 70
     1
  9
$DIMSHO
 70
     1
  9
$DIMPOST
  1

  9
$DIMAPOST
  1

  9
$DIMALT
 70
     0
  9
$DIMALTD
 70
     2
  9
$DIMALTF
 40
25.4
  9
$DIMLFAC
 40
1.0
  9
$DIMTOFL
 70
     0
  9
$DIMTVP
 40
0.0
  9
$DIMTIX
 70
     0
  9
$DIMSOXD
 70
     0
  9
$DIMSAH
 70
     0
  9
$DIMBLK1
  1

  9
$DIMBLK2
  1

  9
$DIMSTYLE
  2
Standard
  9
$DIMCLRD
 70
     0
  9
$DIMCLRE
 70
     0
  9
$DIMCLRT
 70
     0
  9
$DIMTFAC
 40
1.0
  9
$DIMGAP
 40
0.06
  9
$DIMJUST
 70
     0
  9
$DIMSD1
 70
     0
  9
$DIMSD2
 70
     0
  9
$DIMTOLJ
 70
     1
  9
$DIMTZIN
 70
     1
  9
$DIMALTZ
 70
     0
  9
$DIMALTTZ
 70
     0
  9
$DIMUPT
 70
     0
  9
$DIMDEC
 70
     2
  9
$DIMTDEC
 70
     2
  9
$DIMALTU
 70
     2
  9
$DIMALTTD
 70
     2
  9
$DIMTXSTY
  7
Standard
  9
$DIMAUNIT
 70
     0
  9
$DIMADEC
 70
     2
  9
$DIMALTRND
 40
0.0
  9
$DIMAZIN
 70
     0
  9
$DIMDSEP
 70
    46
  9
$DIMATFIT
 70
     3
  9
$DIMFRAC
 70
     0
  9
$DIMLDRBLK
  1

  9
$DIMLUNIT
 70
     2
  9
$DIMLWD
 70
    -2
  9
$DIMLWE
 70
    -2
  9
$DIMTMOVE
 70
     0
  9
$LUNITS
 70
     2
  9
$LUPREC
 70
     2
  9
$SKETCHINC
 40
0.1
  9
$FILLETRAD
 40
0.5
  9
$AUNITS
 70
     0
  9
$AUPREC
 70
     2
  9
$MENU
  1
.
  9
$ELEVATION
 40
0.0
  9
$PELEVATION
 40
0.0
  9
$THICKNESS
 40
0.0
  9
$LIMCHECK
 70
     0
  9
$CHAMFERA
 40
0.0
  9
$CHAMFERB
 40
0.0
  9
$CHAMFERC
 40
0.0
  9
$CHAMFERD
 40
0.0
  9
$SKPOLY
 70
     0
  9
$TDCREATE
 40
2459676.835387708
  9
$TDUCREATE
 40
2459677.002054375
  9
$TDUPDATE
 40
2459676.835388334
  9
$TDUUPDATE
 40
2459677.002055
  9
$TDINDWG
 40
0.0000000116
  9
$TDUSRTIMER
 40
0.0000000116
  9
$USRTIMER
 70
     1
  9
$ANGBASE
 50
0.0
  9
$ANGDIR
 70
     0
  9
$PDMODE
 70
     0
  9
$PDSIZE
 40
-1.0
  9
$PLINEWID
 40
0.0
  9
$SPLFRAME
 70
     0
  9
$SPLINETYPE
 70
     6
  9
$SPLINESEGS
 70
     8
  9
$HANDSEED
  5
283
  9
$SURFTAB1
 70
     6
  9
$SURFTAB2
 70
     6
  9
$SURFTYPE
 70
     6
  9
$SURFU
 70
     6
  9
$SURFV
 70
     6
  9
$UCSBASE
  2

  9
$UCSNAME
  2

  9
$UCSORG
 10
0.0
 20
0.0
 30
0.0
  9
$UCSXDIR
 10
1.0
 20
0.0
 30
0.0
  9
$UCSYDIR
 10
0.0
 20
1.0
 30
0.0
  9
$UCSORTHOREF
  2

  9
$UCSORTHOVIEW
 70
     0
  9
$UCSORGTOP
 10
0.0
 20
0.0
 30
0.0
  9
$UCSORGBOTTOM
 10
0.0
 20
0.0
 30
0.0
  9
$UCSORGLEFT
 10
0.0
 20
0.0
 30
0.0
  9
$UCSORGRIGHT
 10
0.0
 20
0.0
 30
0.0
  9
$UCSORGFRONT
 10
0.0
 20
0.0
 30
0.0
  9
$UCSORGBACK
 10
0.0
 20
0.0
 30
0.0
  9
$PUCSBASE
  2

  9
$PUCSNAME
  2

  9
$PUCSORG
 10
0.0
 20
0.0
 30
0.0
  9
$PUCSXDIR
 10
1.0
 20
0.0
 30
0.0
  9
$PUCSYDIR
 10
0.0
 20
1.0
 30
0.0
  9
$PUCSORTHOREF
  2

  9
$PUCSORTHOVIEW
 70
     0
  9
$PUCSORGTOP
 10
0.0
 20
0.0
 30
0.0
  9
$PUCSORGBOTTOM
 10
0.0
 20
0.0
 30
0.0
  9
$PUCSORGLEFT
 10
0.0
 20
0.0
 30
0.0
  9
$PUCSORGRIGHT
 10
0.0
 20
0.0
 30
0.0
  9
$PUCSORGFRONT
 10
0.0
 20
0.0
 30
0.0
  9
$PUCSORGBACK
 10
0.0
 20
0.0
 30
0.0
  9
$USERI1
 70
     0
  9
$USERI2
 70
     0
  9
$USERI3
 70
     0
  9
$USERI4
 70
     0
  9
$USERI5
 70
     0
  9
$USERR1
 40
0.0
  9
$USERR2
 40
0.0
  9
$USERR3
 40
0.0
  9
$USERR4
 40
0.0
  9
$USERR5
 40
0.0
  9
$WORLDVIEW
 70
     1
  9
$SHADEDGE
 70
     3
  9
$SHADEDIF
 70
    70
  9
$TILEMODE
 70
     1
  9
$MAXACTVP
 70
    64
  9
$PINSBASE
 10
0.0
 20
0.0
 30
0.0
  9
$PLIMCHECK
 70
     0
  9
$PEXTMIN
 10
1.0000000000E+20
 20
1.0000000000E+20
 30
1.0000000000E+20
  9
$PEXTMAX
 10
-1.0000000000E+20
 20
-1.0000000000E+20
 30
-1.0000000000E+20
  9
$PLIMMIN
 10
0.0
 20
0.0
  9
$PLIMMAX
 10
12.0
 20
9.0
  9
$UNITMODE
 70
     0
  9
$VISRETAIN
 70
     1
  9
$PLINEGEN
 70
     0
  9
$PSLTSCALE
 70
     1
  9
$TREEDEPTH
 70
  3020
  9
$CMLSTYLE
  2
Standard
  9
$CMLJUST
 70
     0
  9
$CMLSCALE
 40
1.0
  9
$PROXYGRAPHICS
 70
     1
  9
$MEASUREMENT
 70
     0
  9
$CELWEIGHT
370
    -1
  9
$ENDCAPS
280
     0
  9
$JOINSTYLE
280
     0
  9
$LWDISPLAY
290
     1
  9
$INSUNITS
 70
     1
  9
$HYPERLINKBASE
  1

  9
$STYLESHEET
  1

  9
$XEDIT
290
     1
  9
$CEPSNTYPE
380
     0
  9
$PSTYLEMODE
290
     1
  9
$FINGERPRINTGUID
  2
{31bbccb9-1a45-4592-95bd-b3f25a7ea14d}
  9
$VERSIONGUID
  2
{FAEB1C32-E019-11D5-929B-00C0DF256EC4}
  9
$EXTNAMES
290
     1
  9
$PSVPSCALE
 40
0.0
  9
$OLESTARTUP
290
     0
  0
ENDSEC
  0
SECTION
  2
CLASSES
  0
CLASS
  1
ACDBDICTIONARYWDFLT
  2
AcDbDictionaryWithDefault
  3
ObjectDBX Classes
 90
        0
280
     0
281
     0
  0
CLASS
  1
VISUALSTYLE
  2
AcDbVisualStyle
  3
ObjectDBX Classes
 90
     4095
280
     0
281
     0
  0
CLASS
  1
MATERIAL
  2
AcDbMaterial
  3
ObjectDBX Classes
 90
     1153
280
     0
281
     0
  0
CLASS
  1
SCALE
  2
AcDbScale
  3
ObjectDBX Classes
 90
     1153
280
     0
281
     0
  0
CLASS
  1
TABLESTYLE
  2
AcDbTableStyle
  3
ObjectDBX Classes
 90
     4095
280
     0
281
     0
  0
CLASS
  1
MLEADERSTYLE
  2
AcDbMLeaderStyle
  3
ACDB_MLEADERSTYLE_CLASS
 90
     4095
280
     0
281
     0
  0
CLASS
  1
SUN
  2
AcDbSun
  3
SCENEOE
 90
     1153
280
     0
281
     0
  0
CLASS
  1
ACDBPLACEHOLDER
  2
AcDbPlaceHolder
  3
ObjectDBX Classes
 90
        0
280
     0
281
     0
  0
CLASS
  1
LAYOUT
  2
AcDbLayout
  3
ObjectDBX Classes
 90
        0
280
     0
281
     0
  0
ENDSEC
  0
SECTION
  2
TABLES
  0
TABLE
  2
VPORT
  5
8
330
0
100
AcDbSymbolTable
 70
     1
  0
VPORT
  5
29
330
8
100
AcDbSymbolTableRecord
100
AcDbViewportTableRecord
  2
*Active
 70
     0
 10
0.0
 20
0.0
 11
1.0
 21
1.0
 12
8.5
 22
5.5
 13
0.0
 23
0.0
 14
0.5
 24
0.5
 15
0.5
 25
0.5
 16
0.0
 26
0.0
 36
1.0
 17
0.0
 27
0.0
 37
0.0
 40
11.0
 41
1.5454545455
 42
50.0
 43
0.0
 44
0.0
 50
0.0
 51
0.0
 71
     0
 72
  2000
 73
     1
 74
     3
 75
     0
 76
     0
 77
     0
 78
     0
281
     0
 65
     1
110
0.0
120
0.0
130
0.0
111
1.0
121
0.0
131
0.0
112
0.0
122
1.0
132
0.0
 79
     0
146
0.0
  0
ENDTAB
  0
TABLE
  2
LTYPE
  5
5
330
0
100
AcDbSymbolTable
 70
     6
  0
LTYPE
  5
14
330
5
100
AcDbSymbolTableRecord
100
AcDbLinetypeTableRecord
  2
ByBlock
 70
     0
  3

 72
    65
 73
     0
 40
0.0
  0
LTYPE
  5
15
330
5
100
AcDbSymbolTableRecord
100
AcDbLinetypeTableRecord
  2
ByLayer
 70
     0
  3

 72
    65
 73
     0
 40
0.0
  0
LTYPE
  5
16
330
5
100
AcDbSymbolTableRecord
100
AcDbLinetypeTableRecord
  2
Continuous
 70
     0
  3
Solid line
 72
    65
 73
     0
 40
0.0
  0
LTYPE
  5
6E
330
5
100
AcDbSymbolTableRecord
100
AcDbLinetypeTableRecord
  2
HIDDEN
 70
     0
  3
Hidden __ __ __ __ __ __ __ __ __ __ __ __ __ __
 72
    65
 73
     2
 40
0.075
 49
0.05
 74
     0
 49
-0.025
 74
     0
  0
LTYPE
  5
6F
330
5
100
AcDbSymbolTableRecord
100
AcDbLinetypeTableRecord
  2
PHANTOM
 70
     0
  3
Phantom ______  __  __  ______  __  __  ______
 72
    65
 73
     6
 40
0.5
 49
0.25
 74
     0
 49
-0.05
 74
     0
 49
0.05
 74
     0
 49
-0.05
 74
     0
 49
0.05
 74
     0
 49
-0.05
 74
     0
  0
LTYPE
  5
70
330
5
100
AcDbSymbolTableRecord
100
AcDbLinetypeTableRecord
  2
CENTER
 70
     0
  3
Center ____ _ ____ _ ____ _ ____ _ ____ _ ____
 72
    65
 73
     4
 40
0.4
 49
0.25
 74
     0
 49
-0.05
 74
     0
 49
0.05
 74
     0
 49
-0.05
 74
     0
  0
LTYPE
  5
71
330
5
100
AcDbSymbolTableRecord
100
AcDbLinetypeTableRecord
  2
CENTERX2
 70
     0
  3
Center (2x) ________  __  ________  __  _____
 72
    65
 73
     4
 40
0.8
 49
0.5
 74
     0
 49
-0.1
 74
     0
 49
0.1
 74
     0
 49
-0.1
 74
     0
  0
LTYPE
  5
72
330
5
100
AcDbSymbolTableRecord
100
AcDbLinetypeTableRecord
  2
DOT2
 70
     0
  3
Dot (.5x) ........................................
 72
    65
 73
     2
 40
0.025
 49
0.0
 74
     0
 49
-0.025
 74
     0
  0
ENDTAB
  0
TABLE
  2
LAYER
  5
2
330
0
100
AcDbSymbolTable
 70
     4
  0
LAYER
  5
10
330
2
100
AcDbSymbolTableRecord
100
AcDbLayerTableRecord
  2
0
 70
     0
 62
     7
  6
Continuous
370
    -3
390
F
  0
LAYER
  5
73
330
2
100
AcDbSymbolTableRecord
100
AcDbLayerTableRecord
  2
FORMAT
 70
     0
 62
     7
  6
Continuous
370
    -3
390
F
  0
LAYER
  5
74
330
2
100
AcDbSymbolTableRecord
100
AcDbLayerTableRecord
  2
SLD-0
 70
     0
 62
   179
  6
Continuous
370
    -3
390
F
  0
LAYER
  5
75
330
2
100
AcDbSymbolTableRecord
100
AcDbLayerTableRecord
  2
ARAT
 70
     0
 62
   179
  6
Continuous
370
    -3
390
F
  0
ENDTAB
  0
TABLE
  2
STYLE
  5
3
330
0
100
AcDbSymbolTable
 70
     2
  0
STYLE
  5
11
330
3
100
AcDbSymbolTableRecord
100
AcDbTextStyleTableRecord
  2
Standard
 70
     0
 40
0.0
 41
1.0
 50
0.0
 71
     0
 42
0.125
  3
txt
  4

  0
STYLE
  5
15D
330
3
100
AcDbSymbolTableRecord
100
AcDbTextStyleTableRecord
  2
SLDTEXTSTYLE0
 70
     0
 40
0.0
 41
0.75
 50
0.0
 71
     0
 42
0.125
  3
TXT
  4

  0
ENDTAB
  0
TABLE
  2
VIEW
  5
6
330
0
100
AcDbSymbolTable
 70
     0
  0
ENDTAB
  0
TABLE
  2
UCS
  5
7
330
0
100
AcDbSymbolTable
 70
     0
  0
ENDTAB
  0
TABLE
  2
APPID
  5
9
330
0
100
AcDbSymbolTable
 70
     1
  0
APPID
  5
12
330
9
100
AcDbSymbolTableRecord
100
AcDbRegAppTableRecord
  2
ACAD
 70
     0
  0
ENDTAB
  0
TABLE
  2
DIMSTYLE
  5
A
330
0
100
AcDbSymbolTable
 70
     3
100
AcDbDimStyleTable
  0
DIMSTYLE
105
27
330
A
100
AcDbSymbolTableRecord
100
AcDbDimStyleTableRecord
  2
Standard
 70
     0
178
     0
340
11
  0
DIMSTYLE
105
15E
102
{ACAD_REACTORS
330
15C
102
}
330
A
100
AcDbSymbolTableRecord
100
AcDbDimStyleTableRecord
  2
SLDDIMSTYLE0
 70
     0
 41
0.13
 44
0.0
 45
0.000000001
 78
     4
 79
     1
140
0.125
141
0.0
147
0.03125
173
     1
178
     0
271
     2
272
     2
276
     2
284
    12
340
15D
  0
DIMSTYLE
105
1CB
102
{ACAD_REACTORS
330
1CA
102
}
330
A
100
AcDbSymbolTableRecord
100
AcDbDimStyleTableRecord
  2
SLDDIMSTYLE1
 70
     0
 41
0.13
 44
0.0
 45
0.000000001
 78
    12
 79
     3
140
0.125
147
0.03125
173
     1
178
     0
271
     2
272
     2
276
     2
284
    12
340
15D
  0
ENDTAB
  0
TABLE
  2
BLOCK_RECORD
  5
1
330
0
100
AcDbSymbolTable
 70
     3
  0
BLOCK_RECORD
  5
1F
330
1
100
AcDbSymbolTableRecord
100
AcDbBlockTableRecord
  2
*Model_Space
340
22
  0
BLOCK_RECORD
  5
1B
330
1
100
AcDbSymbolTableRecord
100
AcDbBlockTableRecord
  2
*Paper_Space
340
1E
  0
BLOCK_RECORD
  5
23
330
1
100
AcDbSymbolTableRecord
100
AcDbBlockTableRecord
  2
*Paper_Space0
340
26
  0
BLOCK_RECORD
  5
15F
330
1
100
AcDbSymbolTableRecord
100
AcDbBlockTableRecord
  2
_D
340
0
  0
BLOCK_RECORD
  5
1CC
330
1
100
AcDbSymbolTableRecord
100
AcDbBlockTableRecord
  2
_D_1
340
0
  0
ENDTAB
  0
ENDSEC
  0
SECTION
  2
BLOCKS
  0
BLOCK
  5
20
330
1F
100
AcDbEntity
  8
0
100
AcDbBlockBegin
  2
*Model_Space
 70
     0
 10
0.0
 20
0.0
 30
0.0
  3
*Model_Space
  1

  0
ENDBLK
  5
21
330
1F
100
AcDbEntity
  8
0
100
AcDbBlockEnd
  0
BLOCK
  5
1C
330
1B
100
AcDbEntity
 67
     1
  8
0
100
AcDbBlockBegin
  2
*Paper_Space
 70
     0
 10
0.0
 20
0.0
 30
0.0
  3
*Paper_Space
  1

  0
ENDBLK
  5
1D
330
1B
100
AcDbEntity
 67
     1
  8
0
100
AcDbBlockEnd
  0
BLOCK
  5
24
330
23
100
AcDbEntity
  8
0
100
AcDbBlockBegin
  2
*Paper_Space0
 70
     0
 10
0.0
 20
0.0
 30
0.0
  3
*Paper_Space0
  1

  0
ENDBLK
  5
25
330
23
100
AcDbEntity
  8
0
100
AcDbBlockEnd
  0
BLOCK
  5
160
330
15F
100
AcDbEntity
  8
0
100
AcDbBlockBegin
  2
_D
 70
     0
 10
0.0
 20
0.0
 30
0.0
  3
_D
  1

  0
SOLID
  5
162
330
15F
100
AcDbEntity
  8
ARAT
100
AcDbTrace
 10
2.9758401071
 20
6.6625962844
 30
0.0
 11
3.0617979552
 21
6.7621515372
 31
0.0
 12
3.0278989036
 22
6.7833848671
 32
0.0
 13
3.0278989036
 23
6.7833848671
 33
0.0
  0
LINE
  5
163
330
15F
100
AcDbEntity
  8
ARAT
100
AcDbLine
 10
2.9758401071
 20
6.6625962844
 30
0.0
 11
3.319604971
 21
7.2114175436
 31
0.0
  0
LINE
  5
164
330
15F
100
AcDbEntity
  8
ARAT
100
AcDbLine
 10
3.319604971
 20
7.2114175436
 30
0.0
 11
3.569604971
 21
7.2114175436
 31
0.0
  0
MTEXT
  5
165
330
15F
100
AcDbEntity
  8
ARAT
100
AcDbMText
 10
3.569604971
 20
7.2720500006
 30
0.0
 40
0.125
 41
0.0
 71
     1
 72
     1
  1
%%c
  7
SLDTEXTSTYLE0
 73
     1
 44
1.0
  0
MTEXT
  5
166
330
15F
100
AcDbEntity
  8
ARAT
100
AcDbMText
 10
3.7581205916
 20
7.2739597229
 30
0.0
 40
0.125
 41
0.0
 71
     1
 72
     1
  1
1.30
  7
SLDTEXTSTYLE0
 73
     1
 44
1.0
  0
ENDBLK
  5
161
330
15F
100
AcDbEntity
  8
0
100
AcDbBlockEnd
  0
BLOCK
  5
1CD
330
1CC
100
AcDbEntity
  8
0
100
AcDbBlockBegin
  2
_D_1
 70
     0
 10
0.0
 20
0.0
 30
0.0
  3
_D_1
  1

  0
SOLID
  5
1CF
330
1CC
100
AcDbEntity
  8
ARAT
100
AcDbTrace
 10
4.8926285816
 20
2.2678790427
 30
0.0
 11
4.8726285816
 21
2.1378790427
 31
0.0
 12
4.9126285816
 22
2.1378790427
 32
0.0
 13
4.9126285816
 23
2.1378790427
 33
0.0
  0
SOLID
  5
1D0
330
1CC
100
AcDbEntity
  8
ARAT
100
AcDbTrace
 10
4.8926285816
 20
0.6796963655
 30
0.0
 11
4.9126285816
 21
0.8096963655
 31
0.0
 12
4.8726285816
 22
0.8096963655
 32
0.0
 13
4.8726285816
 23
0.8096963655
 33
0.0
  0
LINE
  5
1D1
330
1CC
100
AcDbEntity
  8
ARAT
100
AcDbLine
 10
5.7166443296
 20
2.2678790427
 30
0.0
 11
4.7676285816
 21
2.2678790427
 31
0.0
  0
LINE
  5
1D2
330
1CC
100
AcDbEntity
  8
ARAT
100
AcDbLine
 10
5.9990620951
 20
0.6796963655
 30
0.0
 11
4.7676285816
 21
0.6796963655
 31
0.0
  0
LINE
  5
1D3
330
1CC
100
AcDbEntity
  8
ARAT
100
AcDbLine
 10
4.8926285816
 20
2.2678790427
 30
0.0
 11
4.8926285816
 21
1.4984335337
 31
0.0
  0
LINE
  5
1D4
330
1CC
100
AcDbEntity
  8
ARAT
100
AcDbLine
 10
4.8926285816
 20
0.6796963655
 30
0.0
 11
4.8926285816
 21
1.2999960277
 31
0.0
  0
MTEXT
  5
1D5
330
1CC
100
AcDbEntity
  8
ARAT
100
AcDbMText
 10
4.7309966321
 20
1.4611295089
 30
0.0
 40
0.125
 41
0.0
 71
     1
 72
     1
  1
1.59
  7
SLDTEXTSTYLE0
 73
     1
 44
1.0
  0
ENDBLK
  5
1CE
330
1CC
100
AcDbEntity
  8
0
100
AcDbBlockEnd
  0
ENDSEC
  0
SECTION
  2
ENTITIES
  0
SPLINE
  5
76
330
1F
100
AcDbEntity
  8
0
  6
Continuous
 62
     7
370
    25
100
AcDbSpline
210
0.0
220
0.0
230
1.0
 70
     8
 71
     3
 72
    26
 73
    22
 74
     0
 42
0.000000001
 43
0.00000001
 40
0.0
 40
0.0
 40
0.0
 40
0.0
 40
0.0359771396876505
 40
0.089794837526258
 40
0.1435981001538131
 40
0.1973882819820459
 40
0.2511667509077066
 40
0.3049350467581402
 40
0.3586945811605595
 40
0.4124467249353401
 40
0.4661928001968578
 40
0.5199342272413231
 40
0.573672175308759
 40
0.6274079091299721
 40
0.6811424691048823
 40
0.7348770003084909
 40
0.7886128408231338
 40
0.8423512901728358
 40
0.8960938787988052
 40
0.9498419672493928
 40
1.0
 40
1.0
 40
1.0
 40
1.0
 10
2.289254735355825
 20
2.267879034813773
 30
0.0
 10
2.285486486746509
 20
2.272236089337728
 30
0.0
 10
2.276081367980266
 20
2.283110800514557
 30
0.0
 10
2.262557785686203
 20
2.301925460125271
 30
0.0
 10
2.24859013642742
 20
2.32400576082362
 30
0.0
 10
2.236167778483785
 20
2.347137323665708
 30
0.0
 10
2.225289016564795
 20
2.371140735410822
 30
0.0
 10
2.216025221056652
 20
2.395912443774898
 30
0.0
 10
2.208418108269788
 20
2.421323609003581
 30
0.0
 10
2.202506845430968
 20
2.447247917259582
 30
0.0
 10
2.198320516596104
 20
2.473554967332275
 30
0.0
 10
2.195880041910906
 20
2.500112866012894
 30
0.0
 10
2.19519743523163
 20
2.526788346774987
 30
0.0
 10
2.196275836150442
 20
2.553447596555553
 30
0.0
 10
2.199109801592788
 20
2.579956738186854
 30
0.0
 10
2.203684089569633
 20
2.60618329899311
 30
0.0
 10
2.209978033505109
 20
2.631994083096981
 30
0.0
 10
2.217950487877092
 20
2.657266297825311
 30
0.0
 10
2.227596031274282
 20
2.681849200605642
 30
0.0
 10
2.238487733465607
 20
2.705177788030974
 30
0.0
 10
2.246863423871297
 20
2.719817745742761
 30
0.0
 10
2.250906575023712
 20
2.726884812339862
 30
0.0
  0
SPLINE
  5
77
330
1F
100
AcDbEntity
  8
0
  6
Continuous
 62
     7
370
    25
100
AcDbSpline
210
0.0
220
0.0
230
1.0
 70
     8
 71
     3
 72
    26
 73
    22
 74
     0
 42
0.000000001
 43
0.00000001
 40
0.0
 40
0.0
 40
0.0
 40
0.0
 40
0.0292842792744481
 40
0.0839847957980147
 40
0.138697805063121
 40
0.1934197263772719
 40
0.2481494877736305
 40
0.3028858768366032
 40
0.3576277034503195
 40
0.4123739440776363
 40
0.4671235123096698
 40
0.5218753188992882
 40
0.576628014252998
 40
0.6313804401355817
 40
0.6861313855121669
 40
0.740879769180232
 40
0.7956243336579761
 40
0.850363728632738
 40
0.9050966526107459
 40
0.9598216596745754
 40
1.0
 40
1.0
 40
1.0
 40
1.0
 10
2.22386324076395
 20
2.743029765831982
 30
0.0
 10
2.221408189772535
 20
2.738815885735277
 30
0.0
 10
2.214367314555654
 20
2.726730839826433
 30
0.0
 10
2.203918003724611
 20
2.706021775701935
 30
0.0
 10
2.193068000350995
 20
2.680724909701613
 30
0.0
 10
2.183877841882803
 20
2.654682742795358
 30
0.0
 10
2.17636497484036
 20
2.628034868541543
 30
0.0
 10
2.17057142521791
 20
2.60090020509911
 30
0.0
 10
2.166522499143955
 20
2.573406156236514
 30
0.0
 10
2.164237720663996
 20
2.545680137997884
 30
0.0
 10
2.163727908545012
 20
2.517851102816381
 30
0.0
 10
2.164995590013485
 20
2.490048445380704
 30
0.0
 10
2.168035209640939
 20
2.462401539980978
 30
0.0
 10
2.172832593487394
 20
2.435038950353113
 30
0.0
 10
2.179366170761412
 20
2.408088295137708
 30
0.0
 10
2.187604435722171
 20
2.381674003800504
 30
0.0
 10
2.197513627387232
 20
2.355922751776217
 30
0.0
 10
2.209031502036763
 20
2.330940739377825
 30
0.0
 10
2.222165182408354
 20
2.306895705796469
 30
0.0
 10
2.235346607729546
 20
2.285761382779733
 30
0.0
 10
2.244763520058329
 20
2.273197913149907
 30
0.0
 10
2.248750269933532
 20
2.267879034813773
 30
0.0
  0
SPLINE
  5
78
330
1F
100
AcDbEntity
  8
0
  6
Continuous
 62
     7
370
    25
100
AcDbSpline
210
0.0
220
0.0
230
1.0
 70
     8
 71
     3
 72
    17
 73
    13
 74
     0
 42
0.000000001
 43
0.00000001
 40
0.0
 40
0.0
 40
0.0
 40
0.0
 40
0.0562848163361875
 40
0.1618345876815802
 40
0.2674023487648391
 40
0.3729818107081185
 40
0.4785719296665642
 40
0.5841711733422597
 40
0.6897782115938357
 40
0.7953915437562564
 40
0.90101051244742
 40
1.0
 40
1.0
 40
1.0
 40
1.0
 10
2.250906575023712
 20
2.726884812339862
 30
0.0
 10
2.253692793837779
 20
2.731652530522839
 30
0.0
 10
2.261703952127286
 20
2.745361053647714
 30
0.0
 10
2.273769422290654
 20
2.768765937692475
 30
0.0
 10
2.286555682767064
 20
2.797297681292145
 30
0.0
 10
2.297698440266712
 20
2.826611008409356
 30
0.0
 10
2.307183656172074
 20
2.856582086649037
 30
0.0
 10
2.31496741577355
 20
2.887108101481208
 30
0.0
 10
2.321034527967894
 20
2.918078140982398
 30
0.0
 10
2.325320687707159
 20
2.949381241335472
 30
0.0
 10
2.327911747953297
 20
2.980245229499916
 30
0.0
 10
2.328223333490306
 20
3.00066754222114
 30
0.0
 10
2.328374078445835
 20
3.010547848773593
 30
0.0
  0
SPLINE
  5
79
330
1F
100
AcDbEntity
  8
0
  6
Continuous
 62
     7
370
    25
100
AcDbSpline
210
0.0
220
0.0
230
1.0
 70
     8
 71
     3
 72
    17
 73
    13
 74
     0
 42
0.000000001
 43
0.00000001
 40
0.0
 40
0.0
 40
0.0
 40
0.0
 40
0.0562770982230628
 40
0.1646156400228988
 40
0.272965941807474
 40
0.3813167272572837
 40
0.4896693150480425
 40
0.5980256848224373
 40
0.7063875615413525
 40
0.8147562987395649
 40
0.9231338128320357
 40
1.0
 40
1.0
 40
1.0
 40
1.0
 10
2.296878013957727
 20
3.010547848773593
 30
0.0
 10
2.296830156560456
 20
3.005247241015197
 30
0.0
 10
2.296690169312885
 20
2.989742480353938
 30
0.0
 10
2.295123509801235
 20
2.964066324755156
 30
0.0
 10
2.29159168614156
 20
2.933671560956236
 30
0.0
 10
2.286294673044301
 20
2.903568747490625
 30
0.0
 10
2.279283530471975
 20
2.873873921239635
 30
0.0
 10
2.270574961408561
 20
2.844701351352266
 30
0.0
 10
2.260212379108754
 20
2.816156369984834
 30
0.0
 10
2.24820479430722
 20
2.788368731847387
 30
0.0
 10
2.236018683546761
 20
2.763982827570757
 30
0.0
 10
2.227427938554085
 20
2.749174448030016
 30
0.0
 10
2.22386324076395
 20
2.743029765831982
 30
0.0
  0
LINE
  5
7A
330
1F
100
AcDbEntity
  8
0
  6
Continuous
 62
     7
370
    25
100
AcDbLine
 10
2.296878014
 20
3.128658031
 30
0.0
 11
2.296878014
 21
3.0105478488
 31
0.0
  0
LINE
  5
7B
330
1F
100
AcDbEntity
  8
0
  6
Continuous
 62
     7
370
    25
100
AcDbLine
 10
2.3283740784
 20
3.0105478488
 30
0.0
 11
2.3283740784
 21
3.128658031
 31
0.0
  0
SPLINE
  5
7C
330
1F
100
AcDbEntity
  8
0
  6
Continuous
 62
     7
370
    25
100
AcDbSpline
210
0.0
220
0.0
230
1.0
 70
     8
 71
     3
 72
    27
 73
    23
 74
     0
 42
0.000000001
 43
0.00000001
 40
0.0
 40
0.0
 40
0.0
 40
0.0
 40
0.0277665127968496
 40
0.0816361290824344
 40
0.1355133109519487
 40
0.1893893572579932
 40
0.2432644573730127
 40
0.2971387474762745
 40
0.3510123154710135
 40
0.4048854745884544
 40
0.4587582192692738
 40
0.5126307818844766
 40
0.5665033013079928
 40
0.6203759588692503
 40
0.6742489359018939
 40
0.7281223478588024
 40
0.7819963947033632
 40
0.8358712927286676
 40
0.8897470945829432
 40
0.9436239227404405
 40
0.9975019393085655
 40
1.0
 40
1.0
 40
1.0
 40
1.0
 10
3.023497609986149
 20
2.72651008333543
 30
0.0
 10
3.025910740949763
 20
2.72261921836996
 30
0.0
 10
3.033005570332183
 20
2.71117971363678
 30
0.0
 10
3.043567267861076
 20
2.691454553460606
 30
0.0
 10
3.054555347947853
 20
2.667138766667469
 30
0.0
 10
3.063781211201655
 20
2.642087185963387
 30
0.0
 10
3.07122435193198
 20
2.616444991104449
 30
0.0
 10
3.076840236300068
 20
2.590336238448613
 30
0.0
 10
3.080602742562291
 20
2.563893457061841
 30
0.0
 10
3.082492405198563
 20
2.537249183546635
 30
0.0
 10
3.082499847410807
 20
2.510537404066915
 30
0.0
 10
3.080625105069419
 20
2.483892355033007
 30
0.0
 10
3.076877618380068
 20
2.45744790701256
 30
0.0
 10
3.071276124803355
 20
2.431337020682716
 30
0.0
 10
3.063849096850662
 20
2.405690634671455
 30
0.0
 10
3.054632883873454
 20
2.380638583957427
 30
0.0
 10
3.043677529762282
 20
2.356303079846409
 30
0.0
 10
3.03102394891713
 20
2.332820118454236
 30
0.0
 10
3.016788307767898
 20
2.310256585172337
 30
0.0
 10
3.000846177173893
 20
2.288916469495102
 30
0.0
 10
2.989361157271901
 20
2.274782562586715
 30
0.0
 10
2.982842648985641
 20
2.268171955134342
 30
0.0
 10
2.982553809639091
 20
2.267879034813773
 30
0.0
  0
SPLINE
  5
7D
330
1F
100
AcDbEntity
  8
0
  6
Continuous
 62
     7
370
    25
100
AcDbSpline
210
0.0
220
0.0
230
1.0
 70
     8
 71
     3
 72
    26
 73
    22
 74
     0
 42
0.000000001
 43
0.00000001
 40
0.0
 40
0.0
 40
0.0
 40
0.0
 40
0.0315079582919676
 40
0.0861386657849151
 40
0.1407704266927194
 40
0.195403212439312
 40
0.2500369934787801
 40
0.3046717008053457
 40
0.3593071823090613
 40
0.4139433290220742
 40
0.4685800909048137
 40
0.5232173442534718
 40
0.5778548455994178
 40
0.6324926051432025
 40
0.6871303389704808
 40
0.7417678996910437
 40
0.7964051660578435
 40
0.8510420824853473
 40
0.9056783338465012
 40
0.9603139386446469
 40
1.0
 40
1.0
 40
1.0
 40
1.0
 10
3.023827569507761
 20
2.267879034813773
 30
0.0
 10
3.02718725972417
 20
2.272020486349954
 30
0.0
 10
3.03637221642655
 20
2.283342676967123
 30
0.0
 10
3.049721500902394
 20
2.303123940270324
 30
0.0
 10
3.063929930159972
 20
2.32697529429913
 30
0.0
 10
3.07641974724041
 20
2.35179429332751
 30
0.0
 10
3.087218486273564
 20
2.377396887403185
 30
0.0
 10
3.096253091867903
 20
2.40368277309378
 30
0.0
 10
3.103487733481198
 20
2.430525045577667
 30
0.0
 10
3.108887164908816
 20
2.457800492952777
 30
0.0
 10
3.11242667967072
 20
2.485382218026531
 30
0.0
 10
3.114089844503671
 20
2.513142312371242
 30
0.0
 10
3.113868777098257
 20
2.54095194229848
 30
0.0
 10
3.111764592097354
 20
2.568682064800397
 30
0.0
 10
3.10778688229209
 20
2.596203884650554
 30
0.0
 10
3.101954665132103
 20
2.623390056977604
 30
0.0
 10
3.094292707511503
 20
2.650112895710224
 30
0.0
 10
3.084845278319043
 20
2.676254113116308
 30
0.0
 10
3.073623585433134
 20
2.701670915300796
 30
0.0
 10
3.061971058965471
 20
2.724076970899042
 30
0.0
 10
3.05360092359069
 20
2.737680695805683
 30
0.0
 10
3.05007916958037
 20
2.743404494836414
 30
0.0
  0
SPLINE
  5
7E
330
1F
100
AcDbEntity
  8
0
  6
Continuous
 62
     7
370
    25
100
AcDbSpline
210
0.0
220
0.0
230
1.0
 70
     8
 71
     3
 72
    17
 73
    13
 74
     0
 42
0.000000001
 43
0.00000001
 40
0.0
 40
0.0
 40
0.0
 40
0.0
 40
0.0562655263373006
 40
0.1616341654876738
 40
0.2670139544439151
 40
0.3723936537104058
 40
0.4777728634372304
 40
0.5831517011451287
 40
0.6885298806502189
 40
0.7939073818994324
 40
0.8992838278125137
 40
0.9999999999999999
 40
0.9999999999999999
 40
0.9999999999999999
 40
0.9999999999999999
 10
2.940938797045934
 20
3.010547848773593
 30
0.0
 10
2.940992758901608
 20
3.004923307189629
 30
0.0
 10
2.941147775304685
 20
2.988765667790243
 30
0.0
 10
2.942856395437117
 20
2.962108347408225
 30
0.0
 10
2.946659340259956
 20
2.930723343177568
 30
0.0
 10
2.952350943365011
 20
2.899623145317738
 30
0.0
 10
2.959877474242263
 20
2.868920671980236
 30
0.0
 10
2.969223207633196
 20
2.838727631271809
 30
0.0
 10
2.980342172568901
 20
2.80914585239172
 30
0.0
 10
2.993232986271992
 20
2.780305879482917
 30
0.0
 10
3.007494569814522
 20
2.7526341488279
 30
0.0
 10
3.01824428934975
 20
2.735085834623086
 30
0.0
 10
3.023497609986149
 20
2.72651008333543
 30
0.0
  0
SPLINE
  5
7F
330
1F
100
AcDbEntity
  8
0
  6
Continuous
 62
     7
370
    25
100
AcDbSpline
210
0.0
220
0.0
230
1.0
 70
     8
 71
     3
 72
    17
 73
    13
 74
     0
 42
0.000000001
 43
0.00000001
 40
0.0
 40
0.0
 40
0.0
 40
0.0
 40
0.0562651550595598
 40
0.1648852570544945
 40
0.2735171959097746
 40
0.3821476235886618
 40
0.4907768405083677
 40
0.5994049210326885
 40
0.70803192252677
 40
0.816658194226191
 40
0.9252836555963134
 40
0.9999999999999999
 40
0.9999999999999999
 40
0.9999999999999999
 40
0.9999999999999999
 10
3.05007916958037
 20
2.743404494836414
 30
0.0
 10
3.047288915139361
 20
2.747889617614495
 30
0.0
 10
3.039112063582369
 20
2.761033287464904
 30
0.0
 10
3.026765176941987
 20
2.783578782755745
 30
0.0
 10
3.013650723403458
 20
2.811253758854779
 30
0.0
 10
3.002281814959993
 20
2.839704027701546
 30
0.0
 10
2.992675065812354
 20
2.868802035388115
 30
0.0
 10
2.984876871142368
 20
2.898441538752719
 30
0.0
 10
2.978904865489286
 20
2.928508325050197
 30
0.0
 10
2.974820284605258
 20
2.958887607557922
 30
0.0
 10
2.97273876214605
 20
2.986283413523501
 30
0.0
 10
2.972522837757805
 20
3.003522494605706
 30
0.0
 10
2.972434843200921
 20
3.010547848773593
 30
0.0
  0
LINE
  5
80
330
1F
100
AcDbEntity
  8
0
  6
Continuous
 62
     7
370
    25
100
AcDbLine
 10
2.9724348432
 20
3.0105478488
 30
0.0
 11
2.9724348432
 21
3.128658031
 31
0.0
  0
LINE
  5
81
330
1F
100
AcDbEntity
  8
0
  6
Continuous
 62
     7
370
    25
100
AcDbLine
 10
2.940938797
 20
3.128658031
 30
0.0
 11
2.940938797
 21
3.0105478488
 31
0.0
  0
LINE
  5
82
330
1F
100
AcDbEntity
  8
0
  6
Continuous
 62
     7
370
    25
100
AcDbLine
 10
3.2799379776
 20
2.244256991
 30
0.0
 11
3.2799379776
 21
2.2678790348
 31
0.0
  0
LINE
  5
83
330
1F
100
AcDbEntity
  8
0
  6
Continuous
 62
     7
370
    25
100
AcDbLine
 10
1.9836063262
 20
2.2678790348
 30
0.0
 11
1.9836063262
 21
2.244256991
 31
0.0
  0
LINE
  5
84
330
1F
100
AcDbEntity
  8
0
  6
Continuous
 62
     7
370
    25
100
AcDbLine
 10
3.0770477414
 20
0.679696335
 30
0.0
 11
3.0770477414
 21
1.7463215632
 31
0.0
  0
LINE
  5
85
330
1F
100
AcDbEntity
  8
0
  6
Continuous
 62
     7
370
    25
100
AcDbLine
 10
3.0258666526
 20
1.7463215632
 30
0.0
 11
3.0258666526
 21
0.679696335
 31
0.0
  0
SPLINE
  5
86
330
1F
100
AcDbEntity
  8
0
  6
Continuous
 62
     7
370
    25
100
AcDbSpline
210
0.0
220
0.0
230
1.0
 70
     8
 71
     3
 72
    34
 73
    30
 74
     0
 42
0.000000001
 43
0.00000001
 40
0.0
 40
0.0
 40
0.0
 40
0.0
 40
0.031479890627034
 40
0.0759743513077225
 40
0.1167800435761971
 40
0.1505719639697236
 40
0.1845020351352702
 40
0.2105100103385642
 40
0.2428540338318523
 40
0.2793974654001293
 40
0.325774249224924
 40
0.3630632731024541
 40
0.4086229206288811
 40
0.4627073224043589
 40
0.5230436421161321
 40
0.5640306184600106
 40
0.5999952290018243
 40
0.637509872703256
 40
0.6783065141955764
 40
0.7008552393641322
 40
0.7243589748334522
 40
0.7630797475823569
 40
0.796635609158079
 40
0.8389226339450778
 40
0.8834433621100818
 40
0.9205240215547896
 40
0.9544892790336522
 40
0.9969385781856461
 40
1.0
 40
1.0
 40
1.0
 40
1.0
 10
2.671752578791431
 20
2.267879034813773
 30
0.0
 10
2.674243877264577
 20
2.271455249199787
 30
0.0
 10
2.680256438987032
 20
2.280086173980749
 30
0.0
 10
2.688208431020573
 20
2.29352813713465
 30
0.0
 10
2.695168583098507
 20
2.307418994490949
 30
0.0
 10
2.700292936726203
 20
2.320385839421087
 30
0.0
 10
2.703585930524416
 20
2.331740045857744
 30
0.0
 10
2.705682572371314
 20
2.343043851822944
 30
0.0
 10
2.706676531732074
 20
2.354773510997682
 30
0.0
 10
2.706260843430578
 20
2.369046752153674
 30
0.0
 10
2.703867165516135
 20
2.383798540493954
 30
0.0
 10
2.699311686268991
 20
2.399382102083093
 30
0.0
 10
2.692425032082809
 20
2.415595575504322
 30
0.0
 10
2.681869879170998
 20
2.434157254188865
 30
0.0
 10
2.669765089947917
 20
2.451857686594463
 30
0.0
 10
2.658257241476123
 20
2.467420409696099
 30
0.0
 10
2.648411091832571
 20
2.480403097084924
 30
0.0
 10
2.63881288910775
 20
2.493340859587298
 30
0.0
 10
2.63095888228759
 20
2.504775998367878
 30
0.0
 10
2.62505040251481
 20
2.514472148999487
 30
0.0
 10
2.620011659665278
 20
2.523796459065515
 30
0.0
 10
2.61573358216105
 20
2.533801876958673
 30
0.0
 10
2.612654197406343
 20
2.545225168005611
 30
0.0
 10
2.611673089261218
 20
2.556542470755249
 30
0.0
 10
2.61320833220872
 20
2.568228671121188
 30
0.0
 10
2.617085971979937
 20
2.580032875295872
 30
0.0
 10
2.622974820319022
 20
2.592271100536179
 30
0.0
 10
2.628011852081829
 20
2.601009885769924
 30
0.0
 10
2.631535146423846
 20
2.606142289247276
 30
0.0
 10
2.631772151901413
 20
2.6064875365128
 30
0.0
  0
SPLINE
  5
87
330
1F
100
AcDbEntity
  8
0
  6
Continuous
 62
     7
370
    25
100
AcDbSpline
210
0.0
220
0.0
230
1.0
 70
     8
 71
     3
 72
    34
 73
    30
 74
     0
 42
0.000000001
 43
0.00000001
 40
0.0
 40
0.0
 40
0.0
 40
0.0
 40
0.0150521370767037
 40
0.0525859887504456
 40
0.0979726423249681
 40
0.1444420791256485
 40
0.1811768631235013
 40
0.2158981625414454
 40
0.2561338565409715
 40
0.3025757600781427
 40
0.3455477336533216
 40
0.3949863346684509
 40
0.4393171507557904
 40
0.4914619253752694
 40
0.5380552111291182
 40
0.5790542010768379
 40
0.6140992786438013
 40
0.6507388217287808
 40
0.6908043657450295
 40
0.7359252146813338
 40
0.7615229152526148
 40
0.7832968610615776
 40
0.8056138157439912
 40
0.833602701232401
 40
0.8647746070853861
 40
0.8915887205533142
 40
0.9254865874233226
 40
0.9595720553351929
 40
1.0
 40
1.0
 40
1.0
 40
1.0
 10
2.666094150199747
 20
2.653618068723536
 30
0.0
 10
2.667381656180022
 20
2.655364511861542
 30
0.0
 10
2.671879673614345
 20
2.661465867352823
 30
0.0
 10
2.679654804439857
 20
2.672853732999999
 30
0.0
 10
2.688784976049666
 20
2.688105611189729
 30
0.0
 10
2.696240602124051
 20
2.703488208988733
 30
0.0
 10
2.701548944388503
 20
2.717976336611751
 30
0.0
 10
2.705050807504089
 20
2.731859637702347
 30
0.0
 10
2.706860216394996
 20
2.747175206368585
 30
0.0
 10
2.706267180354628
 20
2.763676540693495
 30
0.0
 10
2.703071065792336
 20
2.781081303146531
 30
0.0
 10
2.69754649032153
 20
2.797874090565214
 30
0.0
 10
2.689228406996917
 20
2.815389176906259
 30
0.0
 10
2.678922079991284
 20
2.832295882372065
 30
0.0
 10
2.667561325877425
 20
2.848548663720984
 30
0.0
 10
2.656997306881436
 20
2.862774274641034
 30
0.0
 10
2.647086800801944
 20
2.875869415425461
 30
0.0
 10
2.637551071232925
 20
2.88881307386997
 30
0.0
 10
2.628000171271077
 20
2.90291617730469
 30
0.0
 10
2.620910367424544
 20
2.915512959275003
 30
0.0
 10
2.616637767030971
 20
2.925470244721862
 30
0.0
 10
2.614308721925972
 20
2.932613499131317
 30
0.0
 10
2.612677557975946
 20
2.939926357692279
 30
0.0
 10
2.611917023235561
 20
2.947796507080221
 30
0.0
 10
2.612339715732146
 20
2.956002314156673
 30
0.0
 10
2.61418546932819
 20
2.965147479357647
 30
0.0
 10
2.617705177169372
 20
2.975143472465282
 30
0.0
 10
2.623486697519624
 20
2.98708875013424
 30
0.0
 10
2.628857936341035
 20
2.995595585550936
 30
0.0
 10
2.631772151894241
 20
3.000211048185195
 30
0.0
  0
LINE
  5
88
330
1F
100
AcDbEntity
  8
0
  6
Continuous
 62
     7
370
    25
100
AcDbLine
 10
2.6656802227
 20
3.0468070232
 30
0.0
 11
2.6667139128
 21
3.0482201402
 31
0.0
  0
SPLINE
  5
89
330
1F
100
AcDbEntity
  8
0
  6
Continuous
 62
     7
370
    25
100
AcDbSpline
210
0.0
220
0.0
230
1.0
 70
     8
 71
     3
 72
    33
 73
    29
 74
     0
 42
0.000000001
 43
0.00000001
 40
0.0
 40
0.0
 40
0.0
 40
0.0
 40
0.0383716132837047
 40
0.0818852951583181
 40
0.1211804189753165
 40
0.1547376064724638
 40
0.1904165597274557
 40
0.2318471967942954
 40
0.2806552536711734
 40
0.3242452740663972
 40
0.3597393487856682
 40
0.3962880405895171
 40
0.4418078195783055
 40
0.4879416247010236
 40
0.5273667832329859
 40
0.5637873570694307
 40
0.6001485929862689
 40
0.6446672837873668
 40
0.6913579063115591
 40
0.728394849057487
 40
0.7612584604863372
 40
0.8002763001990647
 40
0.8453860121624267
 40
0.8835494323830031
 40
0.9056189630121332
 40
0.929745602750058
 40
0.9600528643703732
 40
1.0
 40
1.0
 40
1.0
 40
1.0
 10
2.597492040197177
 20
3.047315657362064
 30
0.0
 10
2.594269078274007
 20
3.042865356618925
 30
0.0
 10
2.587391254649249
 20
3.033368383239128
 30
0.0
 10
2.578431227779749
 20
3.019120200801328
 30
0.0
 10
2.57096617420629
 20
3.005254772126582
 30
0.0
 10
2.565221194199936
 20
2.992181833743629
 30
0.0
 10
2.560642650363604
 20
2.978571453492275
 30
0.0
 10
2.557412011573422
 20
2.962807843631374
 30
0.0
 10
2.556655845584526
 20
2.94580372294144
 30
0.0
 10
2.558427723249543
 20
2.929673072755037
 30
0.0
 10
2.561826095421393
 20
2.915332917240869
 30
0.0
 10
2.566946204164239
 20
2.900807641872372
 30
0.0
 10
2.57442596459703
 20
2.885440723746249
 30
0.0
 10
2.583752344611213
 20
2.870038685488971
 30
0.0
 10
2.593443866985551
 20
2.855868929074024
 30
0.0
 10
2.602984395738279
 20
2.84280665296423
 30
0.0
 10
2.613271602943981
 20
2.829219658169216
 30
0.0
 10
2.624376215964481
 20
2.814381720331756
 30
0.0
 10
2.634515978562059
 20
2.799547290181061
 30
0.0
 10
2.642060102218369
 20
2.786432371730893
 30
0.0
 10
2.647397794074788
 20
2.774516328011732
 30
0.0
 10
2.650859244403005
 20
2.762439094152357
 30
0.0
 10
2.651864772274015
 20
2.750838393618956
 30
0.0
 10
2.650516824741194
 20
2.740520790768729
 30
0.0
 10
2.64808316505652
 20
2.731914941654598
 30
0.0
 10
2.644960052602992
 20
2.723849724472129
 30
0.0
 10
2.639858484679759
 20
2.713398043546104
 30
0.0
 10
2.63470338001918
 20
2.705328682266614
 30
0.0
 10
2.631772151895075
 20
2.70074038769582
 30
0.0
  0
SPLINE
  5
8A
330
1F
100
AcDbEntity
  8
0
  6
Continuous
 62
     7
370
    25
100
AcDbSpline
210
0.0
220
0.0
230
1.0
 70
     8
 71
     3
 72
    35
 73
    31
 74
     0
 42
0.000000001
 43
0.00000001
 40
0.0
 40
0.0
 40
0.0
 40
0.0
 40
0.000997520501938
 40
0.0359280356872903
 40
0.0680665192008286
 40
0.1090349013826207
 40
0.1433200280818242
 40
0.1789748653010737
 40
0.2198096823793918
 40
0.2664203161910414
 40
0.3118217088698706
 40
0.3485353147861574
 40
0.3840664507369993
 40
0.426213642219899
 40
0.4738696210624824
 40
0.5155543221930389
 40
0.5529779250954883
 40
0.5889024830494318
 40
0.6280781299814543
 40
0.6743211951271483
 40
0.7164153187425975
 40
0.7514158759610036
 40
0.7854576611347074
 40
0.8129383155216148
 40
0.84655060151951
 40
0.875690449689768
 40
0.9088200938450625
 40
0.9424975004220028
 40
0.984536543939326
 40
1.0
 40
1.0
 40
1.0
 40
1.0
 10
2.597450153597721
 20
2.653618068723536
 30
0.0
 10
2.59736441143294
 20
2.653502598458739
 30
0.0
 10
2.594276206679113
 20
2.649343666600794
 30
0.0
 10
2.588710429168819
 20
2.641435297716507
 30
0.0
 10
2.580461136115559
 20
2.628768879331133
 30
0.0
 10
2.573220876135106
 20
2.616019044644059
 30
0.0
 10
2.566954918462532
 20
2.602736256894894
 30
0.0
 10
2.561939145336498
 20
2.589221004470204
 30
0.0
 10
2.558117745745089
 20
2.573880012465089
 30
0.0
 10
2.556592076490297
 20
2.557057558674323
 30
0.0
 10
2.557703177540788
 20
2.540741605539969
 30
0.0
 10
2.560625544478977
 20
2.526134989965759
 30
0.0
 10
2.565066755353526
 20
2.511962625270552
 30
0.0
 10
2.571725913444277
 20
2.496764741334791
 30
0.0
 10
2.58061535002857
 20
2.481236570194792
 30
0.0
 10
2.590416602993884
 20
2.466489375488668
 30
0.0
 10
2.600032341835193
 20
2.453122802392704
 30
0.0
 10
2.609808646322477
 20
2.440065810463491
 30
0.0
 10
2.62045341012108
 20
2.425978455393555
 30
0.0
 10
2.631018337148815
 20
2.411172628805595
 30
0.0
 10
2.639723223850101
 20
2.397115246398195
 30
0.0
 10
2.645784139467874
 20
2.384859697272097
 30
0.0
 10
2.649316239071484
 20
2.3746913600911
 30
0.0
 10
2.651229845747736
 20
2.36519980101383
 30
0.0
 10
2.651653083669672
 20
2.356595120097417
 30
0.0
 10
2.650627542714438
 20
2.347320581215571
 30
0.0
 10
2.648007940513915
 20
2.337550443768024
 30
0.0
 10
2.643075889775831
 20
2.325910988053365
 30
0.0
 10
2.637520979081423
 20
2.315616936882888
 30
0.0
 10
2.632990483597467
 20
2.308968148012813
 30
0.0
 10
2.631772151901221
 20
2.307180169137049
 30
0.0
  0
SPLINE
  5
8B
330
1F
100
AcDbEntity
  8
0
  6
Continuous
 62
     7
370
    25
100
AcDbSpline
210
0.0
220
0.0
230
1.0
 70
     8
 71
     3
 72
    20
 73
    16
 74
     0
 42
0.000000001
 43
0.00000001
 40
0.0
 40
0.0
 40
0.0
 40
0.0
 40
0.0176558867484472
 40
0.1004585952573511
 40
0.1929060163767808
 40
0.29516324239116
 40
0.3917339992252467
 40
0.469096651555949
 40
0.5452010017163581
 40
0.6121401569011554
 40
0.6893531441128146
 40
0.7524808515646662
 40
0.8306805426570605
 40
0.9110826939712434
 40
1.0
 40
1.0
 40
1.0
 40
1.0
 10
2.66017516440971
 20
2.267879034813773
 30
0.0
 10
2.659517645338478
 20
2.268770337898767
 30
0.0
 10
2.655776488454548
 20
2.273841680796621
 30
0.0
 10
2.648353491154275
 20
2.283584186134781
 30
0.0
 10
2.637994721008766
 20
2.297632112473806
 30
0.0
 10
2.628039628582728
 20
2.312302568924855
 30
0.0
 10
2.620418065443791
 20
2.325918049616045
 30
0.0
 10
2.615548377298713
 20
2.337548751264737
 30
0.0
 10
2.612914074308349
 20
2.347320987228777
 30
0.0
 10
2.611891781824694
 20
2.356594945632738
 30
0.0
 10
2.61231534296297
 20
2.365200034804844
 30
0.0
 10
2.614224628220789
 20
2.374690700750147
 30
0.0
 10
2.617777019722957
 20
2.384862823992394
 30
0.0
 10
2.623568976388663
 20
2.396729292579944
 30
0.0
 10
2.628947595638921
 20
2.405160438401683
 30
0.0
 10
2.631772151903112
 20
2.409588014446214
 30
0.0
  0
SPLINE
  5
8C
330
1F
100
AcDbEntity
  8
0
  6
Continuous
 62
     7
370
    25
100
AcDbSpline
210
0.0
220
0.0
230
1.0
 70
     8
 71
     3
 72
    33
 73
    29
 74
     0
 42
0.000000001
 43
0.00000001
 40
0.0
 40
0.0
 40
0.0
 40
0.0
 40
0.0265112020891139
 40
0.068206581270331
 40
0.115874774339992
 40
0.1580327681478037
 40
0.193573020253555
 40
0.2302960358668073
 40
0.2757090649222946
 40
0.3223316347950665
 40
0.3755844783572008
 40
0.4209921182392011
 40
0.4740640081652067
 40
0.506210734487629
 40
0.54115019824019
 40
0.5701411962243343
 40
0.6034659201778132
 40
0.6363471193679875
 40
0.6733465765195518
 40
0.7177317852823945
 40
0.7608095038911199
 40
0.7942297495787505
 40
0.8324204620502601
 40
0.8775624520257215
 40
0.9166082249362018
 40
0.9494953397300498
 40
0.9865587936262191
 40
1.0
 40
1.0
 40
1.0
 40
1.0
 10
2.666048005732812
 20
2.456757852869549
 30
0.0
 10
2.668277069749018
 20
2.459836832551876
 30
0.0
 10
2.674011884619615
 20
2.467758264300858
 30
0.0
 10
2.68291425247588
 20
2.481237086590584
 30
0.0
 10
2.691822041351362
 20
2.496764617142723
 30
0.0
 10
2.698476788941433
 20
2.511962640626573
 30
0.0
 10
2.702918940499169
 20
2.526135025269185
 30
0.0
 10
2.705841118582515
 20
2.54074141700365
 30
0.0
 10
2.706951963321335
 20
2.557058470836648
 30
0.0
 10
2.705285243677376
 20
2.575447083492436
 30
0.0
 10
2.700367610049692
 20
2.593525210541883
 30
0.0
 10
2.69262404432949
 20
2.611815294934996
 30
0.0
 10
2.683997476285464
 20
2.62735082914983
 30
0.0
 10
2.674852027531367
 20
2.641436672926735
 30
0.0
 10
2.666910108216549
 20
2.652589922391775
 30
0.0
 10
2.658528877444523
 20
2.663835040416084
 30
0.0
 10
2.650172804366604
 20
2.674865270019129
 30
0.0
 10
2.641255935490923
 20
2.686848599779458
 30
0.0
 10
2.631905074443613
 20
2.700119066214694
 30
0.0
 10
2.623082953089201
 20
2.714359657705018
 30
0.0
 10
2.616806889255283
 20
2.727667108069963
 30
0.0
 10
2.613177574332054
 20
2.739401812301557
 30
0.0
 10
2.611676515575273
 20
2.750841445609254
 30
0.0
 10
2.612691158789238
 20
2.76243933721637
 30
0.0
 10
2.616129633152531
 20
2.774513392004614
 30
0.0
 10
2.621538936368738
 20
2.786442421822854
 30
0.0
 10
2.626705395494965
 20
2.795774579322386
 30
0.0
 10
2.630707136719962
 20
2.801603716645316
 30
0.0
 10
2.631772151896228
 20
2.803155071259323
 30
0.0
  0
SPLINE
  5
8D
330
1F
100
AcDbEntity
  8
0
  6
Continuous
 62
     7
370
    25
100
AcDbSpline
210
0.0
220
0.0
230
1.0
 70
     8
 71
     3
 72
    21
 73
    17
 74
     0
 42
0.000000001
 43
0.00000001
 40
0.0
 40
0.0
 40
0.0
 40
0.0
 40
0.0266664101635664
 40
0.0990168243838879
 40
0.1836784854685052
 40
0.267213339548708
 40
0.3342850544049862
 40
0.3994214065194462
 40
0.4794148966891796
 40
0.5689841973081
 40
0.6450149316111097
 40
0.7104905429882288
 40
0.7720724492098436
 40
0.844184232417863
 40
0.9240376312400209
 40
1.0
 40
1.0
 40
1.0
 40
1.0
 10
2.666060366840016
 20
2.850446018283601
 30
0.0
 10
2.667297846798118
 20
2.852135745805964
 30
0.0
 10
2.671892816084885
 20
2.858409985657229
 30
0.0
 10
2.679768902048627
 20
2.870039438120759
 30
0.0
 10
2.689124874234671
 20
2.885440511742135
 30
0.0
 10
2.696596735555333
 20
2.900807686291945
 30
0.0
 10
2.701718526388279
 20
2.915332906909172
 30
0.0
 10
2.705116475713592
 20
2.929673076065471
 30
0.0
 10
2.706888489802625
 20
2.94580372372876
 30
0.0
 10
2.706132297604576
 20
2.962807844046123
 30
0.0
 10
2.702901616453547
 20
2.978571444725527
 30
0.0
 10
2.698323230686928
 20
2.992181855450821
 30
0.0
 10
2.692577670376788
 20
3.005254698803945
 30
0.0
 10
2.685115220012889
 20
3.01912054144712
 30
0.0
 10
2.675920891117787
 20
3.033722291164241
 30
0.0
 10
2.668784268578651
 20
3.043568926099289
 30
0.0
 10
2.665305065148659
 20
3.048369298523645
 30
0.0
  0
SPLINE
  5
8E
330
1F
100
AcDbEntity
  8
0
  6
Continuous
 62
     7
370
    25
100
AcDbSpline
210
0.0
220
0.0
230
1.0
 70
     8
 71
     3
 72
    22
 73
    18
 74
     0
 42
0.000000001
 43
0.00000001
 40
0.0
 40
0.0
 40
0.0
 40
0.0
 40
0.055245312056183
 40
0.1186561033042451
 40
0.1581772630058244
 40
0.2000806064363778
 40
0.2976984708085326
 40
0.3873271756387521
 40
0.4613543289230886
 40
0.5349740190859072
 40
0.5932092061083001
 40
0.6609086567571855
 40
0.7216951587970765
 40
0.7936758267628998
 40
0.8729514551069243
 40
0.9709453773964671
 40
1.0
 40
1.0
 40
1.0
 40
1.0
 10
2.596830390965605
 20
3.048220140246733
 30
0.0
 10
2.598979431039415
 20
3.045261128538254
 30
0.0
 10
2.603595147948458
 20
3.038905751296422
 30
0.0
 10
2.609998642171141
 20
3.030479962421279
 30
0.0
 10
2.615809621198788
 20
3.0227272195238
 30
0.0
 10
2.622897783282074
 20
3.013139273734488
 30
0.0
 10
2.63160170166188
 20
3.000860371424151
 30
0.0
 10
2.639952996128511
 20
2.987194155640355
 30
0.0
 10
2.645853804421375
 20
2.975140256699987
 30
0.0
 10
2.649355962538185
 20
2.965148433206391
 30
0.0
 10
2.651205018789286
 20
2.95600115191945
 30
0.0
 10
2.651628900079174
 20
2.947800737920475
 30
0.0
 10
2.650759238089541
 20
2.93886575665938
 30
0.0
 10
2.648307604208274
 20
2.928943050756347
 30
0.0
 10
2.643287085714753
 20
2.916768761786829
 30
0.0
 10
2.637424391388868
 20
2.905967342923218
 30
0.0
 10
2.632824172095488
 20
2.899205038475763
 30
0.0
 10
2.631772151896633
 20
2.897658572880141
 30
0.0
  0
SPLINE
  5
8F
330
1F
100
AcDbEntity
  8
0
  6
Continuous
 62
     7
370
    25
100
AcDbSpline
210
0.0
220
0.0
230
1.0
 70
     8
 71
     3
 72
    34
 73
    30
 74
     0
 42
0.000000001
 43
0.00000001
 40
0.0
 40
0.0
 40
0.0
 40
0.0
 40
0.0036027211475167
 40
0.0502047984289164
 40
0.1023594238203294
 40
0.1466986088943462
 40
0.1961465431685886
 40
0.2391266292015585
 40
0.2855773002667447
 40
0.3258205901559194
 40
0.3605484444293319
 40
0.3972901541560923
 40
0.4437683721098086
 40
0.4891635870647668
 40
0.5267045296170317
 40
0.5599109722652373
 40
0.5918385077003463
 40
0.615370120811439
 40
0.6464701249997383
 40
0.6802901514384595
 40
0.7217757201974704
 40
0.7549698798607826
 40
0.7912086875521681
 40
0.834718666698986
 40
0.8760456695465985
 40
0.9088397162208135
 40
0.9466814156784118
 40
0.9916217885759167
 40
1.0
 40
1.0
 40
1.0
 40
1.0
 10
2.597483936957452
 20
2.850446018283601
 30
0.0
 10
2.597174716348642
 20
2.850027899253031
 30
0.0
 10
2.592865651700075
 20
2.844201308520776
 30
0.0
 10
2.584660455558071
 20
2.832294749106094
 30
0.0
 10
2.574306971171028
 20
2.815389442543502
 30
0.0
 10
2.566000338275512
 20
2.797874015607138
 30
0.0
 10
2.560472635909399
 20
2.781081321208471
 30
0.0
 10
2.557277283368907
 20
2.763676535296031
 30
0.0
 10
2.556684074413067
 20
2.74717520927025
 30
0.0
 10
2.55849342514586
 20
2.73185963228057
 30
0.0
 10
2.5619956160598
 20
2.717976354674182
 30
0.0
 10
2.567302549895887
 20
2.703488135303934
 30
0.0
 10
2.574764857149802
 20
2.688105945382488
 30
0.0
 10
2.583871003755082
 20
2.672852627696372
 30
0.0
 10
2.593158078870436
 20
2.659359599123245
 30
0.0
 10
2.601932985005033
 20
2.647442874634646
 30
0.0
 10
2.609682101034158
 20
2.637181407228281
 30
0.0
 10
2.617241778077483
 20
2.627124250581712
 30
0.0
 10
2.624792673790497
 20
2.616822971472998
 30
0.0
 10
2.633271458323051
 20
2.604529640707476
 30
0.0
 10
2.640628698526464
 20
2.592259483481182
 30
0.0
 10
2.646442641037377
 20
2.580035979251734
 30
0.0
 10
2.650341039338776
 20
2.568227567734549
 30
0.0
 10
2.651871103143664
 20
2.556542967613888
 30
0.0
 10
2.650886043087858
 20
2.545224439068548
 30
0.0
 10
2.647824034846404
 20
2.533803962200575
 30
0.0
 10
2.642464672820817
 20
2.521438213302116
 30
0.0
 10
2.636673301503005
 20
2.511030858255634
 30
0.0
 10
2.63243771105763
 20
2.504862966231167
 30
0.0
 10
2.631772151896436
 20
2.503893775018021
 30
0.0
  0
SPLINE
  5
90
330
1F
100
AcDbEntity
  8
0
  6
Continuous
 62
     7
370
    25
100
AcDbSpline
210
0.0
220
0.0
230
1.0
 70
     8
 71
     3
 72
    20
 73
    16
 74
     0
 42
0.000000001
 43
0.00000001
 40
0.0
 40
0.0
 40
0.0
 40
0.0
 40
0.0150282726310921
 40
0.1286608966205076
 40
0.2305191557918264
 40
0.3163225882569112
 40
0.3865497501246357
 40
0.4738920948910337
 40
0.542715086391304
 40
0.6036292468418372
 40
0.6526106174983722
 40
0.7372547820391849
 40
0.8296784314013772
 40
0.9407132786365211
 40
1.0
 40
1.0
 40
1.0
 40
1.0
 10
2.597496298064656
 20
2.456757852869549
 30
0.0
 10
2.596828557030491
 20
2.455852793681091
 30
0.0
 10
2.591111854767032
 20
2.448104349828621
 30
0.0
 10
2.581711031128046
 20
2.434154942176902
 30
0.0
 10
2.571111497385734
 20
2.41559606556191
 30
0.0
 10
2.564234149337584
 20
2.399382003903476
 30
0.0
 10
2.559676656497949
 20
2.383798588691918
 30
0.0
 10
2.557283564388067
 20
2.369046654583741
 30
0.0
 10
2.556867762479512
 20
2.354773759493113
 30
0.0
 10
2.557861695602921
 20
2.3430431058097
 30
0.0
 10
2.560208764588957
 20
2.330393759734986
 30
0.0
 10
2.564698142167765
 20
2.315860545366397
 30
0.0
 10
2.572875692770306
 20
2.297807655792166
 30
0.0
 10
2.582151226721345
 20
2.281731734659847
 30
0.0
 10
2.589302470216047
 20
2.271455914185339
 30
0.0
 10
2.591791725006037
 20
2.267879034813773
 30
0.0
  0
ARC
  5
91
330
1F
100
AcDbEntity
  8
0
  6
Continuous
 62
     7
370
    25
100
AcDbCircle
 10
2.6317721519
 20
1.7856916411
 30
0.0
 40
0.4724409448818898
100
AcDbArc
 50
184.7801918472
 51
326.5291652876
  0
ARC
  5
92
330
1F
100
AcDbEntity
  8
0
  6
Continuous
 62
     7
370
    25
100
AcDbCircle
 10
2.6317721519
 20
1.7856916411
 30
0.0
 40
0.47244094488189
100
AcDbArc
 50
340.4757284897
 51
355.2198081528
  0
LINE
  5
93
330
1F
100
AcDbEntity
  8
0
  6
Continuous
 62
     7
370
    25
100
AcDbLine
 10
1.9757323239
 20
2.244256991
 30
0.0
 11
1.9851616349
 21
2.064335735
 31
0.0
  0
LINE
  5
94
330
1F
100
AcDbEntity
  8
0
  6
Continuous
 62
     7
370
    25
100
AcDbLine
 10
3.2783826689
 20
2.064335735
 30
0.0
 11
3.2878119799
 21
2.244256991
 31
0.0
  0
LINE
  5
95
330
1F
100
AcDbEntity
  8
0
  6
Continuous
 62
     7
370
    25
100
AcDbLine
 10
1.9851616349
 20
2.064335735
 30
0.0
 11
2.0123651273
 21
1.9891835731
 31
0.0
  0
LINE
  5
96
330
1F
100
AcDbEntity
  8
0
  6
Continuous
 62
     7
370
    25
100
AcDbLine
 10
3.251248109
 20
1.9893740267
 30
0.0
 11
3.2783826689
 21
2.064335735
 31
0.0
  0
LINE
  5
97
330
1F
100
AcDbEntity
  8
0
  6
Continuous
 62
     7
370
    25
100
AcDbLine
 10
2.3126260554
 20
3.128658031
 30
0.0
 11
2.3283740784
 21
3.128658031
 31
0.0
  0
LINE
  5
98
330
1F
100
AcDbEntity
  8
0
  6
Continuous
 62
     7
370
    25
100
AcDbLine
 10
2.296878014
 20
3.128658031
 30
0.0
 11
2.3126260554
 21
3.128658031
 31
0.0
  0
LINE
  5
99
330
1F
100
AcDbEntity
  8
0
  6
Continuous
 62
     7
370
    25
100
AcDbLine
 10
2.9607626947
 20
3.128658031
 30
0.0
 11
2.940938797
 21
3.128658031
 31
0.0
  0
LINE
  5
9A
330
1F
100
AcDbEntity
  8
0
  6
Continuous
 62
     7
370
    25
100
AcDbLine
 10
2.9724348432
 20
3.128658031
 30
0.0
 11
2.9607626947
 21
3.128658031
 31
0.0
  0
LINE
  5
9B
330
1F
100
AcDbEntity
  8
0
  6
Continuous
 62
     7
370
    25
100
AcDbLine
 10
1.9836063262
 20
2.2678790348
 30
0.0
 11
3.2799379776
 21
2.2678790348
 31
0.0
  0
LINE
  5
9C
330
1F
100
AcDbEntity
  8
0
  6
Continuous
 62
     7
370
    25
100
AcDbLine
 10
3.0258666526
 20
0.679696335
 30
0.0
 11
3.0770477414
 21
0.679696335
 31
0.0
  0
SPLINE
  5
9D
330
1F
100
AcDbEntity
  8
0
  6
Continuous
 62
     7
370
    25
100
AcDbSpline
210
0.0
220
0.0
230
1.0
 70
    24
 71
     3
 72
    17
 73
    13
 74
     0
 42
0.000000001
 43
0.00000001
 40
0.0
 40
0.0
 40
0.0
 40
0.0
 40
0.062915917141961
 40
0.1411136351856228
 40
0.2293102410981393
 40
0.3310398031084631
 40
0.4472115373211904
 40
0.5750655299050886
 40
0.7075308807898297
 40
0.8342264303910506
 40
0.9252135936384326
 40
1.0
 40
1.0
 40
1.0
 40
1.0
 10
2.665219399054947
 20
3.048310559202206
 30
0.0
 10
2.665141173291244
 20
3.048310559202206
 30
0.0
 10
2.664965721316881
 20
3.048310559202206
 30
0.0
 10
2.661658002828097
 20
3.048310559202206
 30
0.0
 10
2.655853335793785
 20
3.048310559202206
 30
0.0
 10
2.647158177646988
 20
3.048310559202206
 30
0.0
 10
2.635935861160208
 20
3.048310559202206
 30
0.0
 10
2.623219063147466
 20
3.048310559202206
 30
0.0
 10
2.610928272755825
 20
3.048310559202206
 30
0.0
 10
2.602148412481725
 20
3.048310559202206
 30
0.0
 10
2.597274562028794
 20
3.048310559202206
 30
0.0
 10
2.597055748508964
 20
3.048310559202206
 30
0.0
 10
2.596957033877615
 20
3.048310559202206
 30
0.0
  0
LINE
  5
9E
330
1F
100
AcDbEntity
  8
0
  6
Continuous
 62
     7
370
    25
100
AcDbLine
 10
3.2783826689
 20
2.064335735
 30
0.0
 11
1.9851616349
 21
2.064335735
 31
0.0
  0
LINE
  5
9F
330
1F
100
AcDbEntity
  8
0
  6
Continuous
 62
     7
370
    25
100
AcDbLine
 10
3.2878119799
 20
2.244256991
 30
0.0
 11
1.9757323239
 21
2.244256991
 31
0.0
  0
LINE
  5
A0
330
1F
100
AcDbEntity
  8
0
  6
Continuous
 62
     7
370
    25
100
AcDbLine
 10
2.7377171255
 20
1.7648312694
 30
0.0
 11
3.0182518439
 21
1.7648312694
 31
0.0
  0
SPLINE
  5
A1
330
1F
100
AcDbEntity
  8
0
  6
Continuous
 62
     7
370
    25
100
AcDbSpline
210
0.0
220
0.0
230
1.0
 70
     8
 71
     3
 72
    10
 73
     6
 74
     0
 42
0.000000001
 43
0.00000001
 40
0.0
 40
0.0
 40
0.0
 40
0.0
 40
0.5
 40
0.5
 40
1.0
 40
1.0
 40
1.0
 40
1.0
 10
2.674010795412297
 20
1.994056792173901
 30
0.0
 10
2.683929329434378
 20
1.955399889724578
 30
0.0
 10
2.694106869054917
 20
1.916910665362291
 30
0.0
 10
2.7152292206659
 20
1.840428942438196
 30
0.0
 10
2.726168093903955
 20
1.8024325991771
 30
0.0
 10
2.737717122078355
 20
1.764831265186582
 30
0.0
  0
SPLINE
  5
A2
330
1F
100
AcDbEntity
  8
0
  6
Continuous
 62
     7
370
    25
100
AcDbSpline
210
0.0
220
0.0
230
1.0
 70
     8
 71
     3
 72
    12
 73
     8
 74
     0
 42
0.000000001
 43
0.00000001
 40
0.0
 40
0.0
 40
0.0
 40
0.0
 40
0.5
 40
0.5
 40
0.75
 40
0.75
 40
1.0
 40
1.0
 40
1.0
 40
1.0
 10
2.589855576963051
 20
1.995312457550989
 30
0.0
 10
2.603556202661472
 20
1.991220130226947
 30
0.0
 10
2.617491461804996
 20
1.988937842172195
 30
0.0
 10
2.63879227257718
 20
1.988584111209562
 30
0.0
 10
2.645982546892993
 20
1.98898796861597
 30
0.0
 10
2.660112271714912
 20
1.990796764285687
 30
0.0
 10
2.66709815625766
 20
1.99219690031009
 30
0.0
 10
2.674010795412301
 20
1.994056792173875
 30
0.0
  0
SPLINE
  5
A3
330
1F
100
AcDbEntity
  8
0
  6
Continuous
 62
     7
370
    25
100
AcDbSpline
210
0.0
220
0.0
230
1.0
 70
     8
 71
     3
 72
    10
 73
     6
 74
     0
 42
0.000000001
 43
0.00000001
 40
0.0
 40
0.0
 40
0.0
 40
0.0
 40
0.5
 40
0.5
 40
1.0
 40
1.0
 40
1.0
 40
1.0
 10
2.525827181719113
 20
1.764831265186582
 30
0.0
 10
2.537438781509685
 20
1.802636319888701
 30
0.0
 10
2.548433698044656
 20
1.840840478574729
 30
0.0
 10
2.569661906900743
 20
1.91774170256494
 30
0.0
 10
2.579889127864576
 20
1.956442697119442
 30
0.0
 10
2.589855576962978
 20
1.995312457550817
 30
0.0
  0
LINE
  5
A4
330
1F
100
AcDbEntity
  8
0
  6
Continuous
 62
     7
370
    25
100
AcDbLine
 10
2.1041067442
 20
1.7648312694
 30
0.0
 11
2.5258271783
 21
1.7648312694
 31
0.0
  0
SPLINE
  5
A5
330
1F
100
AcDbEntity
  8
0
  6
Continuous
 62
     7
370
    25
100
AcDbSpline
210
0.0
220
0.0
230
1.0
 70
     8
 71
     3
 72
    10
 73
     6
 74
     0
 42
0.000000001
 43
0.00000001
 40
0.0
 40
0.0
 40
0.0
 40
0.0
 40
0.5
 40
0.5
 40
1.0
 40
1.0
 40
1.0
 40
1.0
 10
2.012038863970338
 20
1.994056792173901
 30
0.0
 10
2.026740325863183
 20
1.955399889724578
 30
0.0
 10
2.041680046938064
 20
1.916910665362291
 30
0.0
 10
2.072265302739501
 20
1.840428942438196
 30
0.0
 10
2.087905374409294
 20
1.8024325991771
 30
0.0
 10
2.104106727444873
 20
1.764831265186582
 30
0.0
  0
SPLINE
  5
A6
330
1F
100
AcDbEntity
  8
0
  6
Continuous
 62
     7
370
    25
100
AcDbSpline
210
0.0
220
0.0
230
1.0
 70
     8
 71
     3
 72
     9
 73
     5
 74
     0
 42
0.000000001
 43
0.00000001
 40
0.0
 40
0.0
 40
0.0
 40
0.0
 40
0.2119363899011118
 40
1.0
 40
1.0
 40
1.0
 40
1.0
 10
2.012475272735796
 20
1.989223433867053
 30
0.0
 10
2.01251078216821
 20
1.989029548284692
 30
0.0
 10
2.012678329763182
 20
1.988114719158598
 30
0.0
 10
2.012320703418631
 20
1.99143790776863
 30
0.0
 10
2.012038871110478
 20
1.99405679178169
 30
0.0
  0
SPLINE
  5
A7
330
1F
100
AcDbEntity
  8
0
  6
Continuous
 62
     7
370
    25
100
AcDbSpline
210
0.0
220
0.0
230
1.0
 70
     8
 71
     3
 72
    10
 73
     6
 74
     0
 42
0.000000001
 43
0.00000001
 40
0.0
 40
0.0
 40
0.0
 40
0.0
 40
0.5000000000000001
 40
0.5000000000000001
 40
1.0
 40
1.0
 40
1.0
 40
1.0
 10
3.159437576352595
 20
1.764831265186582
 30
0.0
 10
3.175726706890167
 20
1.802636319888701
 30
0.0
 10
3.191448534371976
 20
1.840840478574729
 30
0.0
 10
3.222191551301492
 20
1.917741702564939
 30
0.0
 10
3.237207155548846
 20
1.956442697119441
 30
0.0
 10
3.251982868936875
 20
1.995312457550816
 30
0.0
  0
LINE
  5
A8
330
1F
100
AcDbEntity
  8
0
  6
Continuous
 62
     7
370
    25
100
AcDbLine
 10
3.0988921324
 20
1.7648312694
 30
0.0
 11
3.1594375596
 21
1.7648312694
 31
0.0
  0
SPLINE
  5
A9
330
1F
100
AcDbEntity
  8
0
  6
Continuous
 62
     7
370
    25
100
AcDbSpline
210
0.0
220
0.0
230
1.0
 70
     8
 71
     3
 72
     8
 73
     4
 74
     0
 42
0.000000001
 43
0.00000001
 40
0.0
 40
0.0
 40
0.0
 40
0.0
 40
1.0
 40
1.0
 40
1.0
 40
1.0
 10
3.074102399372864
 20
1.895953332286767
 30
0.0
 10
3.082365645317164
 20
1.894734756454311
 30
0.0
 10
3.090628891261466
 20
1.894734756454305
 30
0.0
 10
3.098892137205766
 20
1.89595333228675
 30
0.0
  0
SPLINE
  5
AA
330
1F
100
AcDbEntity
  8
0
  6
Continuous
 62
     7
370
    25
100
AcDbSpline
210
0.0
220
0.0
230
1.0
 70
     8
 71
     3
 72
     8
 73
     4
 74
     0
 42
0.000000001
 43
0.00000001
 40
0.0
 40
0.0
 40
0.0
 40
0.0
 40
1.0
 40
1.0
 40
1.0
 40
1.0
 10
3.034819728353312
 20
1.82064050885738
 30
0.0
 10
3.048192265920035
 20
1.845598969871655
 30
0.0
 10
3.061262955970533
 20
1.87071557402005
 30
0.0
 10
3.074102399372856
 20
1.895953332286771
 30
0.0
  0
LINE
  5
AB
330
1F
100
AcDbEntity
  8
0
  6
Continuous
 62
     7
370
    25
100
AcDbLine
 10
3.0182518439
 20
1.7648312694
 30
0.0
 11
3.0348197425
 21
1.820640518
 31
0.0
  0
LINE
  5
AC
330
1F
100
AcDbEntity
  8
0
  6
Continuous
 62
     7
370
    25
100
AcDbLine
 10
2.6740107931
 20
1.9940567918
 30
0.0
 11
2.6740107931
 21
1.7853937169
 31
0.0
  0
LINE
  5
AD
330
1F
100
AcDbEntity
  8
0
  6
Continuous
 62
     7
370
    25
100
AcDbLine
 10
2.5898555778
 20
1.7853937169
 30
0.0
 11
2.6740107931
 21
1.7853937169
 31
0.0
  0
LINE
  5
AE
330
1F
100
AcDbEntity
  8
0
  6
Continuous
 62
     7
370
    25
100
AcDbLine
 10
2.5898555778
 20
1.7853937169
 30
0.0
 11
2.5898555778
 21
1.9953124594
 31
0.0
  0
LINE
  5
AF
330
1F
100
AcDbEntity
  8
0
  6
Continuous
 62
     7
370
    25
100
AcDbLine
 10
2.5447562546
 20
1.7463215632
 30
0.0
 11
2.5898555778
 21
1.7853937169
 31
0.0
  0
LINE
  5
B0
330
1F
100
AcDbEntity
  8
0
  6
Continuous
 62
     7
370
    25
100
AcDbLine
 10
2.5447562546
 20
1.7463215632
 30
0.0
 11
2.4732787595
 21
1.7463215632
 31
0.0
  0
SPLINE
  5
B1
330
1F
100
AcDbEntity
  8
0
  6
Continuous
 62
     7
370
    25
100
AcDbSpline
210
0.0
220
0.0
230
1.0
 70
     8
 71
     3
 72
     8
 73
     4
 74
     0
 42
0.000000001
 43
0.00000001
 40
0.0
 40
0.0
 40
0.0
 40
0.0
 40
1.0
 40
1.0
 40
1.0
 40
1.0
 10
2.473278765552311
 20
1.746321562360054
 30
0.0
 10
2.490947829640574
 20
1.751842223517992
 30
0.0
 10
2.508450671407403
 20
1.758068576262152
 30
0.0
 10
2.525827181719113
 20
1.764831265186582
 30
0.0
  0
SPLINE
  5
B2
330
1F
100
AcDbEntity
  8
0
  6
Continuous
 62
     7
370
    25
100
AcDbSpline
210
0.0
220
0.0
230
1.0
 70
     8
 71
     3
 72
     8
 73
     4
 74
     0
 42
0.000000001
 43
0.00000001
 40
0.0
 40
0.0
 40
0.0
 40
0.0
 40
1.0
 40
1.0
 40
1.0
 40
1.0
 10
2.737717122078355
 20
1.764831265186582
 30
0.0
 10
2.755093632390065
 20
1.758068576262152
 30
0.0
 10
2.772596474156894
 20
1.751842223517992
 30
0.0
 10
2.790265538245158
 20
1.746321562360054
 30
0.0
  0
LINE
  5
B3
330
1F
100
AcDbEntity
  8
0
  6
Continuous
 62
     7
370
    25
100
AcDbLine
 10
2.7902655443
 20
1.7463215632
 30
0.0
 11
2.7194566398
 21
1.7463215632
 31
0.0
  0
LINE
  5
B4
330
1F
100
AcDbEntity
  8
0
  6
Continuous
 62
     7
370
    25
100
AcDbLine
 10
2.6740107931
 20
1.7853937169
 30
0.0
 11
2.7194566398
 21
1.7463215632
 31
0.0
  0
LINE
  5
B5
330
1F
100
AcDbEntity
  8
0
  6
Continuous
 62
     7
370
    25
100
AcDbLine
 10
2.7194566398
 20
1.7463215632
 30
0.0
 11
2.5447562546
 21
1.7463215632
 31
0.0
  0
SPLINE
  5
B6
330
1F
100
AcDbEntity
  8
0
  6
Continuous
 62
     7
370
    25
100
AcDbSpline
210
0.0
220
0.0
230
1.0
 70
     8
 71
     3
 72
     8
 73
     4
 74
     0
 42
0.000000001
 43
0.00000001
 40
0.0
 40
0.0
 40
0.0
 40
0.0
 40
1.0
 40
1.0
 40
1.0
 40
1.0
 10
2.104106727444873
 20
1.764831265186582
 30
0.0
 10
2.122319969395399
 20
1.758068576262152
 30
0.0
 10
2.140593183183429
 20
1.751842223517992
 30
0.0
 10
2.158945305728121
 20
1.746321562360054
 30
0.0
  0
LINE
  5
B7
330
1F
100
AcDbEntity
  8
0
  6
Continuous
 62
     7
370
    25
100
AcDbLine
 10
2.4732787595
 20
1.7463215632
 30
0.0
 11
2.1589452907
 21
1.7463215632
 31
0.0
  0
SPLINE
  5
B8
330
1F
100
AcDbEntity
  8
0
  6
Continuous
 62
     7
370
    25
100
AcDbSpline
210
0.0
220
0.0
230
1.0
 70
     8
 71
     3
 72
     8
 73
     4
 74
     0
 42
0.000000001
 43
0.00000001
 40
0.0000002714837552
 40
0.0000002714837552
 40
0.0000002714837552
 40
0.0000002714837552
 40
0.0011191263224907
 40
0.0011191263224907
 40
0.0011191263224907
 40
0.0011191263224907
 10
2.98580628037115
 20
1.746321562360054
 30
0.0
 10
2.996623231691134
 20
1.752486756641485
 30
0.0
 10
3.007438285558681
 20
1.758657005191328
 30
0.0
 10
3.018251829382133
 20
1.764831265186582
 30
0.0
  0
LINE
  5
B9
330
1F
100
AcDbEntity
  8
0
  6
Continuous
 62
     7
370
    25
100
AcDbLine
 10
2.9858062887
 20
1.7463215632
 30
0.0
 11
2.7902655443
 21
1.7463215632
 31
0.0
  0
LINE
  5
BA
330
1F
100
AcDbEntity
  8
0
  6
Continuous
 62
     7
370
    25
100
AcDbLine
 10
3.0741024154
 20
1.8959533297
 30
0.0
 11
3.0741024154
 21
1.7463215632
 31
0.0
  0
LINE
  5
BB
330
1F
100
AcDbEntity
  8
0
  6
Continuous
 62
     7
370
    25
100
AcDbLine
 10
3.0348197425
 20
1.820640518
 30
0.0
 11
3.0348197425
 21
1.7463215632
 31
0.0
  0
LINE
  5
BC
330
1F
100
AcDbEntity
  8
0
  6
Continuous
 62
     7
370
    25
100
AcDbLine
 10
3.0741024154
 20
1.7463215632
 30
0.0
 11
3.0348197425
 21
1.7463215632
 31
0.0
  0
LINE
  5
BD
330
1F
100
AcDbEntity
  8
0
  6
Continuous
 62
     7
370
    25
100
AcDbLine
 10
3.0348197425
 20
1.7463215632
 30
0.0
 11
2.9858062887
 21
1.7463215632
 31
0.0
  0
LINE
  5
BE
330
1F
100
AcDbEntity
  8
0
  6
Continuous
 62
     7
370
    25
100
AcDbLine
 10
3.0988921324
 20
1.8959533297
 30
0.0
 11
3.0988921324
 21
1.7463215632
 31
0.0
  0
LINE
  5
BF
330
1F
100
AcDbEntity
  8
0
  6
Continuous
 62
     7
370
    25
100
AcDbLine
 10
3.0988921324
 20
1.7463215632
 30
0.0
 11
3.0741024154
 21
1.7463215632
 31
0.0
  0
SPLINE
  5
C0
330
1F
100
AcDbEntity
  8
0
  6
Continuous
 62
     7
370
    25
100
AcDbSpline
210
0.0
220
0.0
230
1.0
 70
     8
 71
     3
 72
     8
 73
     4
 74
     0
 42
0.000000001
 43
0.00000001
 40
0.0
 40
0.0
 40
0.0
 40
0.0
 40
1.0
 40
1.0
 40
1.0
 40
1.0
 10
3.104598998069348
 20
1.746321562360054
 30
0.0
 10
3.122951120614039
 20
1.751842223517992
 30
0.0
 10
3.14122433440207
 20
1.758068576262152
 30
0.0
 10
3.159437576352595
 20
1.764831265186582
 30
0.0
  0
LINE
  5
C1
330
1F
100
AcDbEntity
  8
0
  6
Continuous
 62
     7
370
    25
100
AcDbLine
 10
3.1045990131
 20
1.7463215632
 30
0.0
 11
3.0988921324
 21
1.7463215632
 31
0.0
  0
LINE
  5
C2
330
1F
100
AcDbEntity
  8
0
  6
Continuous
 62
     7
370
    25
100
AcDbLine
 10
2.0378562695
 20
1.7853937169
 30
0.0
 11
2.0881363954
 21
1.7463215632
 31
0.0
  0
LINE
  5
C3
330
1F
100
AcDbEntity
  8
0
  6
Continuous
 62
     7
370
    25
100
AcDbLine
 10
2.0120388711
 20
1.9940567918
 30
0.0
 11
2.0378562695
 21
1.7853937169
 31
0.0
  0
LINE
  5
C4
330
1F
100
AcDbEntity
  8
0
  6
Continuous
 62
     7
370
    25
100
AcDbLine
 10
2.1589452907
 20
1.7463215632
 30
0.0
 11
2.0881363954
 21
1.7463215632
 31
0.0
  0
LINE
  5
C5
330
1F
100
AcDbEntity
  8
0
  6
Continuous
 62
     7
370
    25
100
AcDbLine
 10
3.2260101105
 20
1.7853937169
 30
0.0
 11
3.2519829005
 21
1.9953124594
 31
0.0
  0
LINE
  5
C6
330
1F
100
AcDbEntity
  8
0
  6
Continuous
 62
     7
370
    25
100
AcDbLine
 10
3.1760764807
 20
1.7463215632
 30
0.0
 11
3.2260101105
 21
1.7853937169
 31
0.0
  0
LINE
  5
C7
330
1F
100
AcDbEntity
  8
0
  6
Continuous
 62
     7
370
    25
100
AcDbLine
 10
3.1760764807
 20
1.7463215632
 30
0.0
 11
3.1045990131
 21
1.7463215632
 31
0.0
  0
LINE
  5
C8
330
1F
100
AcDbEntity
  8
0
  6
Continuous
 62
     7
370
    25
100
AcDbLine
 10
2.0874678231
 20
1.7463215632
 30
0.0
 11
2.0375341933
 21
1.7853937169
 31
0.0
  0
LINE
  5
C9
330
1F
100
AcDbEntity
  8
0
  6
Continuous
 62
     7
370
    25
100
AcDbLine
 10
2.0375341933
 20
1.7853937169
 30
0.0
 11
2.0378562695
 21
1.7853937169
 31
0.0
  0
LINE
  5
CA
330
1F
100
AcDbEntity
  8
0
  6
Continuous
 62
     7
370
    25
100
AcDbLine
 10
2.0881363954
 20
1.7463215632
 30
0.0
 11
2.0874678231
 21
1.7463215632
 31
0.0
  0
LINE
  5
CB
330
1F
100
AcDbEntity
  8
0
  6
Continuous
 62
     7
370
    25
100
AcDbLine
 10
2.0375341933
 20
1.7853937169
 30
0.0
 11
2.0115614033
 21
1.9953124594
 31
0.0
  0
LWPOLYLINE
  5
CC
330
1F
100
AcDbEntity
  8
0
  6
Continuous
 62
     8
370
    25
100
AcDbPolyline
 90
        6
 70
   128
 43
0.0
 10
2.2382095317
 20
2.7379776709
 10
2.243061319
 20
2.7349117863
 10
2.2471464885
 20
2.7318519883
 10
2.2499132865
 20
2.7292115788
 10
2.2509880474
 20
2.7273471737
 10
2.250907125
 20
2.7268857657
  0
ARC
  5
CD
330
1F
100
AcDbEntity
  8
0
  6
Continuous
 62
     8
370
    25
100
AcDbCircle
 10
2.2250670989
 20
2.7235567111
 30
0.0
 40
0.0195112177945713
100
AcDbArc
 50
47.655759092
 51
93.5356096317
  0
LINE
  5
CE
330
1F
100
AcDbEntity
  8
0
  6
Continuous
 62
     8
370
    25
100
AcDbLine
 10
2.3126260554
 20
3.0105478488
 30
0.0
 11
2.3283740784
 21
3.0105478488
 31
0.0
  0
LINE
  5
CF
330
1F
100
AcDbEntity
  8
0
  6
Continuous
 62
     8
370
    25
100
AcDbLine
 10
2.296878014
 20
3.0105478488
 30
0.0
 11
2.3126260554
 21
3.0105478488
 31
0.0
  0
ARC
  5
D0
330
1F
100
AcDbEntity
  8
0
  6
Continuous
 62
     8
370
    25
100
AcDbCircle
 10
3.0761727083
 20
2.6683604031
 30
0.0
 40
0.0784602710024594
100
AcDbArc
 50
117.4649375814
 51
132.1720194902
  0
ARC
  5
D1
330
1F
100
AcDbEntity
  8
0
  6
Continuous
 62
     8
370
    25
100
AcDbCircle
 10
3.0636778312
 20
2.706014391
 30
0.0
 40
0.0397861279801402
100
AcDbArc
 50
109.9861022955
 51
126.5461494056
  0
LINE
  5
D2
330
1F
100
AcDbEntity
  8
0
  6
Continuous
 62
     8
370
    25
100
AcDbLine
 10
2.9607626947
 20
3.0105478488
 30
0.0
 11
2.940938797
 21
3.0105478488
 31
0.0
  0
LINE
  5
D3
330
1F
100
AcDbEntity
  8
0
  6
Continuous
 62
     8
370
    25
100
AcDbLine
 10
2.9724348432
 20
3.0105478488
 30
0.0
 11
2.9607626947
 21
3.0105478488
 31
0.0
  0
LINE
  5
D4
330
1F
100
AcDbEntity
  8
0
  6
Continuous
 62
     7
370
    25
100
AcDbLine
 10
3.0383986245
 20
6.1412107853
 30
0.0
 11
2.9582970732
 21
6.1494444399
 31
0.0
  0
LINE
  5
D5
330
1F
100
AcDbEntity
  8
0
  6
Continuous
 62
     7
370
    25
100
AcDbLine
 10
2.9550765671
 20
6.11811346
 30
0.0
 11
3.0351781184
 21
6.1098798057
 31
0.0
  0
LWPOLYLINE
  5
D6
330
1F
100
AcDbEntity
  8
0
  6
Continuous
 62
     7
370
    25
100
AcDbPolyline
 90
        9
 70
   128
 43
0.0
 10
2.3070161202
 20
6.0637016771
 10
2.3058088108
 20
6.0632413966
 10
2.3021929326
 20
6.0618628833
 10
2.2961867819
 20
6.0595730994
 10
2.2878206453
 20
6.0563835991
 10
2.2771367987
 20
6.0523104837
 10
2.2641891416
 20
6.0473743228
 10
2.2490430499
 20
6.0416000312
 10
2.2317749727
 20
6.0350167676
  0
LINE
  5
D7
330
1F
100
AcDbEntity
  8
0
  6
Continuous
 62
     7
370
    25
100
AcDbLine
 10
2.2429948064
 20
6.0055868918
 30
0.0
 11
2.3182359539
 21
6.0342718104
 31
0.0
  0
ARC
  5
D8
330
1F
100
AcDbEntity
  8
0
  6
Continuous
 62
     7
370
    25
100
AcDbCircle
 10
3.0981657697
 20
6.1192363026
 30
0.0
 40
0.0157480314960637
100
AcDbArc
 50
264.1311681832
 51
84.1311681832
  0
LINE
  5
D9
330
1F
100
AcDbEntity
  8
0
  6
Continuous
 62
     7
370
    25
100
AcDbLine
 10
3.0351781184
 20
6.1098798057
 30
0.0
 11
3.0965555027
 21
6.1035708128
 31
0.0
  0
LINE
  5
DA
330
1F
100
AcDbEntity
  8
0
  6
Continuous
 62
     7
370
    25
100
AcDbLine
 10
3.0997760455
 20
6.1349017921
 30
0.0
 11
3.0383986245
 21
6.1412107853
 31
0.0
  0
LINE
  5
DB
330
1F
100
AcDbEntity
  8
0
  6
Continuous
 62
     7
370
    25
100
AcDbLine
 10
2.9582970732
 20
6.1494444399
 30
0.0
 11
2.9561113984
 21
6.1496691055
 31
0.0
  0
ARC
  5
DC
330
1F
100
AcDbEntity
  8
0
  6
Continuous
 62
     7
370
    25
100
AcDbCircle
 10
2.1797317897
 20
5.9983221753
 30
0.0
 40
0.015748031496063
100
AcDbArc
 50
110.8688318168
 51
290.8688318168
  0
LINE
  5
DD
330
1F
100
AcDbEntity
  8
0
  6
Continuous
 62
     7
370
    25
100
AcDbLine
 10
2.1853417224
 20
5.983607239
 30
0.0
 11
2.2429948064
 21
6.0055868918
 31
0.0
  0
LINE
  5
DE
330
1F
100
AcDbEntity
  8
0
  6
Continuous
 62
     7
370
    25
100
AcDbLine
 10
2.2317749727
 20
6.0350167676
 30
0.0
 11
2.1741218887
 21
6.0130371149
 31
0.0
  0
LINE
  5
DF
330
1F
100
AcDbEntity
  8
0
  6
Continuous
 62
     7
370
    25
100
AcDbLine
 10
2.3083539247
 20
6.0642117
 30
0.0
 11
2.3070161202
 21
6.0637016771
 31
0.0
  0
LWPOLYLINE
  5
E0
330
1F
100
AcDbEntity
  8
0
  6
Continuous
 62
     7
370
    25
100
AcDbPolyline
 90
        3
 70
   128
 43
0.0
 10
2.2346588094
 20
6.0518249035
 10
2.2270419107
 20
6.080114631
 10
2.2230232171
 20
6.0996845623
  0
LWPOLYLINE
  5
E1
330
1F
100
AcDbEntity
  8
0
  6
Continuous
 62
     7
370
    25
100
AcDbPolyline
 90
        3
 70
   128
 43
0.0
 10
2.5606022911
 20
6.5743491997
 10
2.5656587356
 20
6.5751139476
 10
2.5811863488
 20
6.5770591651
  0
LINE
  5
E2
330
1F
100
AcDbEntity
  8
0
  6
Continuous
 62
     7
370
    25
100
AcDbLine
 10
3.0627371267
 20
6.1555294734
 30
0.0
 11
3.0628347689
 21
6.1584099093
 31
0.0
  0
ARC
  5
E3
330
1F
100
AcDbEntity
  8
0
  6
Continuous
 62
     7
370
    25
100
AcDbCircle
 10
2.6240639122
 20
6.1718410326
 30
0.0
 40
0.4389763779527557
100
AcDbArc
 50
57.3147860336
 51
130.0524678252
  0
LWPOLYLINE
  5
E4
330
1F
100
AcDbEntity
  8
0
  6
Continuous
 62
     7
370
    25
100
AcDbPolyline
 90
        3
 70
   128
 43
0.0
 10
2.1913361765
 20
6.0980375123
 10
2.1965885425
 20
6.0720157936
 10
2.2045598571
 20
6.0425482936
  0
ARC
  5
E5
330
1F
100
AcDbEntity
  8
0
  6
Continuous
 62
     7
370
    25
100
AcDbCircle
 10
3.0174928085
 20
6.1572118316
 30
0.0
 40
0.0137795275590552
100
AcDbArc
 50
264.1311681832
 51
357.8705034147
  0
LWPOLYLINE
  5
E6
330
1F
100
AcDbEntity
  8
0
  6
Continuous
 62
     7
370
    25
100
AcDbPolyline
 90
        3
 70
   128
 43
0.0
 10
3.0589855467
 20
6.1390946526
 10
3.06158775
 20
6.146939817
 10
3.0627371267
 20
6.1555294734
  0
ARC
  5
E7
330
1F
100
AcDbEntity
  8
0
  6
Continuous
 62
     7
370
    25
100
AcDbCircle
 10
2.2478270963
 20
6.0558834183
 30
0.0
 40
0.0137795275590553
100
AcDbArc
 50
197.1294965853
 51
290.8688318168
  0
ARC
  5
E8
330
1F
100
AcDbEntity
  8
0
  6
Continuous
 62
     7
370
    25
100
AcDbCircle
 10
2.2478270963
 20
6.0558834183
 30
0.0
 40
0.0452755905511814
100
AcDbArc
 50
197.1294965853
 51
218.5877636902
  0
SPLINE
  5
E9
330
1F
100
AcDbEntity
  8
0
  6
Continuous
 62
     7
370
    25
100
AcDbSpline
210
0.0
220
0.0
230
1.0
 70
     8
 71
     3
 72
    25
 73
    21
 74
     0
 42
0.000000001
 43
0.00000001
 40
0.0
 40
0.0
 40
0.0
 40
0.0
 40
0.027674957384162
 40
0.0921052706571083
 40
0.1566949175992126
 40
0.221394051627334
 40
0.2859846825461599
 40
0.3505950293953298
 40
0.415276356678055
 40
0.4798886110713447
 40
0.5444233005876137
 40
0.6089742005838729
 40
0.67052246645517
 40
0.7089549159443677
 40
0.7474351152872935
 40
0.7999101636882242
 40
0.8500257173440467
 40
0.9092584832410725
 40
0.9777428513654169
 40
1.0
 40
1.0
 40
1.0
 40
1.0
 10
2.631391376437459
 20
6.285118009281841
 30
0.0
 10
2.632524903880145
 20
6.28523307098394
 30
0.0
 10
2.636297406596464
 20
6.285616008853258
 30
0.0
 10
2.642636585533204
 20
6.282843427427883
 30
0.0
 10
2.648467517027183
 20
6.27722590500812
 30
0.0
 10
2.651663136275085
 20
6.26970391795415
 30
0.0
 10
2.65146074319647
 20
6.261501382714356
 30
0.0
 10
2.648161847852885
 20
6.253953082046424
 30
0.0
 10
2.642123270012397
 20
6.248521671034022
 30
0.0
 10
2.634378378945449
 20
6.245782585344122
 30
0.0
 10
2.626160491074121
 20
6.246416776288483
 30
0.0
 10
2.619065084037875
 20
6.250162868804197
 30
0.0
 10
2.61462064488387
 20
6.255511225363324
 30
0.0
 10
2.612558368093558
 20
6.260924186029674
 30
0.0
 10
2.611849352929693
 20
6.266288166914391
 30
0.0
 10
2.612727215077831
 20
6.272093628832486
 30
0.0
 10
2.615925530551634
 20
6.278108898815333
 30
0.0
 10
2.621424280816188
 20
6.283072776569551
 30
0.0
 10
2.627432998442252
 20
6.285831045087603
 30
0.0
 10
2.631148382896503
 20
6.285193486158276
 30
0.0
 10
2.632059695237165
 20
6.285037105216452
 30
0.0
  0
SPLINE
  5
EA
330
1F
100
AcDbEntity
  8
0
  6
Continuous
 62
     7
370
    25
100
AcDbSpline
210
0.0
220
0.0
230
1.0
 70
     8
 71
     3
 72
    24
 73
    20
 74
     0
 42
0.000000001
 43
0.00000001
 40
0.0
 40
0.0
 40
0.0
 40
0.0
 40
0.0238511033724846
 40
0.0846353771267212
 40
0.1412181338751836
 40
0.193642468039377
 40
0.2419230665772946
 40
0.3258450069999845
 40
0.3930571778558185
 40
0.4540077929220418
 40
0.5157782368772901
 40
0.5784282826790154
 40
0.6419417374175027
 40
0.7061315383629321
 40
0.7703201733912239
 40
0.8344873240714441
 40
0.8986483493577785
 40
0.9628088401003635
 40
1.0
 40
1.0
 40
1.0
 40
1.0
 10
2.632866018435472
 20
6.340153178510869
 30
0.0
 10
2.63098722174512
 20
6.340278040515495
 30
0.0
 10
2.624320332421422
 20
6.340721111961091
 30
0.0
 10
2.613226144535304
 20
6.338623867064131
 30
0.0
 10
2.60052746043207
 20
6.334269257025878
 30
0.0
 10
2.589732875067278
 20
6.328026621687081
 30
0.0
 10
2.57839073571155
 20
6.318858842723373
 30
0.0
 10
2.568308022584477
 20
6.306582731633863
 30
0.0
 10
2.560922263742245
 20
6.291446158873665
 30
0.0
 10
2.557308759412792
 20
6.276765779122087
 30
0.0
 10
2.556692498464543
 20
6.26206328538811
 30
0.0
 10
2.558917820267325
 20
6.247314311081916
 30
0.0
 10
2.564001288064668
 20
6.233097095089418
 30
0.0
 10
2.571919056901077
 20
6.220079536429486
 30
0.0
 10
2.582468867207624
 20
6.209016523520771
 30
0.0
 10
2.595017372732558
 20
6.200241612602434
 30
0.0
 10
2.609026903095673
 20
6.194230875440452
 30
0.0
 10
2.621875450939622
 20
6.191088449094853
 30
0.0
 10
2.629874658536883
 20
6.191357760370949
 30
0.0
 10
2.63280998131589
 20
6.191456584599944
 30
0.0
  0
SPLINE
  5
EB
330
1F
100
AcDbEntity
  8
0
  6
Continuous
 62
     7
370
    25
100
AcDbSpline
210
0.0
220
0.0
230
1.0
 70
     8
 71
     3
 72
     9
 73
     5
 74
     0
 42
0.000000001
 43
0.00000001
 40
0.0
 40
0.0
 40
0.0
 40
0.0
 40
0.6256865270687421
 40
1.0
 40
1.0
 40
1.0
 40
1.0
 10
2.634002271006
 20
6.340244220792474
 30
0.0
 10
2.632969657412509
 20
6.340399517466127
 30
0.0
 10
2.631319288499616
 20
6.340647719508101
 30
0.0
 10
2.629672554732414
 20
6.340405731144522
 30
0.0
 10
2.62905616009702
 20
6.340315151639742
 30
0.0
  0
SPLINE
  5
EC
330
1F
100
AcDbEntity
  8
0
  6
Continuous
 62
     7
370
    25
100
AcDbSpline
210
0.0
220
0.0
230
1.0
 70
     8
 71
     3
 72
    25
 73
    21
 74
     0
 42
0.000000001
 43
0.00000001
 40
0.0
 40
0.0
 40
0.0
 40
0.0
 40
0.027674957666297
 40
0.0921052731787544
 40
0.1566949200443872
 40
0.2213940539959077
 40
0.285984684838261
 40
0.350595031610935
 40
0.4152763588170802
 40
0.4798886109683687
 40
0.5444232999118269
 40
0.6089742028885567
 40
0.6705224636067249
 40
0.7089549192304359
 40
0.7474351119677477
 40
0.7999101603065504
 40
0.8500257197251913
 40
0.909258485552088
 40
0.9777428514045351
 40
1.0
 40
1.0
 40
1.0
 40
1.0
 10
2.63215292736001
 20
6.246582383615343
 30
0.0
 10
2.631019399911477
 20
6.246467318079226
 30
0.0
 10
2.627246897110871
 20
6.246084367443303
 30
0.0
 10
2.620907718438647
 20
6.248856971243592
 30
0.0
 10
2.615076786741774
 20
6.25447448634111
 30
0.0
 10
2.611881167531433
 20
6.261996475275355
 30
0.0
 10
2.612083560593291
 20
6.270199010399081
 30
0.0
 10
2.615382455966386
 20
6.277747309652416
 30
0.0
 10
2.621421033638076
 20
6.283178726382999
 30
0.0
 10
2.629165924945496
 20
6.28591779040682
 30
0.0
 10
2.637383813041061
 20
6.285283625699
 30
0.0
 10
2.644479219166352
 20
6.28153750517809
 30
0.0
 10
2.648923659423292
 20
6.276189176039765
 30
0.0
 10
2.650985935410827
 20
6.270776192046832
 30
0.0
 10
2.651694950990702
 20
6.265412230675387
 30
0.0
 10
2.650817088497339
 20
6.259606765311694
 30
0.0
 10
2.647618773539901
 20
6.253591482549554
 30
0.0
 10
2.642120023101887
 20
6.248627605105467
 30
0.0
 10
2.636111305230061
 20
6.245869348623492
 30
0.0
 10
2.632395920908043
 20
6.246506906896245
 30
0.0
 10
2.631484608578206
 20
6.246663287680732
 30
0.0
  0
SPLINE
  5
ED
330
1F
100
AcDbEntity
  8
0
  6
Continuous
 62
     7
370
    25
100
AcDbSpline
210
0.0
220
0.0
230
1.0
 70
     8
 71
     3
 72
    24
 73
    20
 74
     0
 42
0.000000001
 43
0.00000001
 40
0.0
 40
0.0
 40
0.0
 40
0.0
 40
0.0238511043878278
 40
0.0846353817014413
 40
0.1412181309813864
 40
0.1936424652570634
 40
0.2419230638976527
 40
0.325845022031402
 40
0.3930571725895385
 40
0.4540078098787448
 40
0.5157782312530557
 40
0.5784282996570119
 40
0.6419417331572099
 40
0.7061315342391429
 40
0.7703201858849062
 40
0.8344873236893604
 40
0.8986483491121371
 40
0.9628088386030142
 40
1.0
 40
1.0
 40
1.0
 40
1.0
 10
2.630678285361997
 20
6.191547214386315
 30
0.0
 10
2.632557082074639
 20
6.191422348543913
 30
0.0
 10
2.639223971553982
 20
6.19097926347493
 30
0.0
 10
2.650318157467171
 20
6.193076534854823
 30
0.0
 10
2.663016844572707
 20
6.1974311226131
 30
0.0
 10
2.673811428433015
 20
6.203673763411305
 30
0.0
 10
2.685153569896942
 20
6.212841539727612
 30
0.0
 10
2.695236277653694
 20
6.225117663790873
 30
0.0
 10
2.702622042520356
 20
6.240254223841234
 30
0.0
 10
2.706235543228189
 20
6.254934614125826
 30
0.0
 10
2.706851805006885
 20
6.269637098154872
 30
0.0
 10
2.704626485078601
 20
6.284386081831384
 30
0.0
 10
2.69954301464386
 20
6.298603288786379
 30
0.0
 10
2.691625245059027
 20
6.311620845875279
 30
0.0
 10
2.681075440217574
 20
6.322683872744694
 30
0.0
 10
2.66852692902471
 20
6.331458768319272
 30
0.0
 10
2.654517400976172
 20
6.337469509104288
 30
0.0
 10
2.641668853333224
 20
6.34061193455037
 30
0.0
 10
2.633669645469448
 20
6.340342623339483
 30
0.0
 10
2.630734322481578
 20
6.340243799130679
 30
0.0
  0
SPLINE
  5
EE
330
1F
100
AcDbEntity
  8
0
  6
Continuous
 62
     7
370
    25
100
AcDbSpline
210
0.0
220
0.0
230
1.0
 70
     8
 71
     3
 72
     9
 73
     5
 74
     0
 42
0.000000001
 43
0.00000001
 40
0.0
 40
0.0
 40
0.0
 40
0.0
 40
0.6256865543725735
 40
0.9999999999999999
 40
0.9999999999999999
 40
0.9999999999999999
 40
0.9999999999999999
 10
2.629542032791468
 20
6.19145617210471
 30
0.0
 10
2.630574646303569
 20
6.191300871412718
 30
0.0
 10
2.632225015014361
 20
6.19105266295929
 30
0.0
 10
2.633871749020557
 20
6.19129465224685
 30
0.0
 10
2.634488143700449
 20
6.191385232090881
 30
0.0
  0
CIRCLE
  5
EF
330
1F
100
AcDbEntity
  8
0
  6
Continuous
 62
     7
370
    25
100
AcDbCircle
 10
2.956686817
 20
6.1337789499
 30
0.0
 40
0.0157480314960634
  0
CIRCLE
  5
F0
330
1F
100
AcDbEntity
  8
0
  6
Continuous
 62
     7
370
    25
100
AcDbCircle
 10
2.3126260499
 20
6.0489867413
 30
0.0
 40
0.0157480314960639
  0
ARC
  5
F1
330
1F
100
AcDbEntity
  8
0
  6
Continuous
 62
     7
370
    25
100
AcDbCircle
 10
3.1160222481
 20
6.1570197588
 30
0.0
 40
0.0590551181102363
100
AcDbArc
 50
274.0
 51
5.1599128199
  0
ARC
  5
F2
330
1F
100
AcDbEntity
  8
0
  6
Continuous
 62
     7
370
    25
100
AcDbCircle
 10
2.6317721519
 20
6.1132911392
 30
0.0
 40
0.5452755905511821
100
AcDbArc
 50
5.1599128199
 51
201.6765857345
  0
ARC
  5
F3
330
1F
100
AcDbEntity
  8
0
  6
Continuous
 62
     7
370
    25
100
AcDbCircle
 10
2.1799354442
 20
5.933697327
 30
0.0
 40
0.0590551181102362
100
AcDbArc
 50
201.6765857345
 51
274.0
  0
LINE
  5
F4
330
1F
100
AcDbEntity
  8
0
  6
Continuous
 62
     7
370
    25
100
AcDbLine
 10
2.3177224798
 20
5.8841330048
 30
0.0
 11
2.1840549206
 21
5.8747860645
 31
0.0
  0
ARC
  5
F5
330
1F
100
AcDbEntity
  8
0
  6
Continuous
 62
     7
370
    25
100
AcDbCircle
 10
2.290259309
 20
6.2768747631
 30
0.0
 40
0.3937007874015747
100
AcDbArc
 50
274.0
 51
291.5885668813
  0
LINE
  5
F6
330
1F
100
AcDbEntity
  8
0
  6
Continuous
 62
     7
370
    25
100
AcDbLine
 10
2.8064361825
 20
6.0577219995
 30
0.0
 11
2.4351171937
 21
5.9107921135
 31
0.0
  0
ARC
  5
F7
330
1F
100
AcDbEntity
  8
0
  6
Continuous
 62
     7
370
    25
100
AcDbCircle
 10
2.9512940552
 20
5.6916393521
 30
0.0
 40
0.3937007874015753
100
AcDbArc
 50
94.0
 51
111.5885668813
  0
LINE
  5
F8
330
1F
100
AcDbEntity
  8
0
  6
Continuous
 62
     7
370
    25
100
AcDbLine
 10
3.1201417235
 20
6.0981084959
 30
0.0
 11
2.923830878
 21
6.0843811036
 31
0.0
  0
CIRCLE
  5
F9
330
1F
100
AcDbEntity
  8
0
  6
Continuous
 62
     7
370
    25
100
AcDbCircle
 10
2.6317721519
 20
6.1132911392
 30
0.0
 40
0.6481657969453973
  0
LINE
  5
FA
330
1F
100
AcDbEntity
  8
0
  6
Continuous
 62
     7
370
    25
100
AcDbLine
 10
2.9544109281
 20
6.1555853482
 30
0.0
 11
2.9548421598
 21
6.1494185719
 31
0.0
  0
LINE
  5
FB
330
1F
100
AcDbEntity
  8
0
  6
Continuous
 62
     7
370
    25
100
AcDbLine
 10
2.9570453976
 20
6.1179110847
 30
0.0
 11
2.9592169926
 21
6.0868555434
 31
0.0
  0
ARC
  5
FC
330
1F
100
AcDbEntity
  8
0
  6
Continuous
 62
     7
370
    25
100
AcDbCircle
 10
2.6317721519
 20
6.1132911392
 30
0.0
 40
0.5374015748031503
100
AcDbArc
 50
2.1819603475
 51
204.9793453969
  0
LINE
  5
FD
330
1F
100
AcDbEntity
  8
0
  6
Continuous
 62
     7
370
    25
100
AcDbLine
 10
2.3221766217
 20
5.8844698759
 30
0.0
 11
2.3118711341
 21
6.0318452751
 31
0.0
  0
LINE
  5
FE
330
1F
100
AcDbEntity
  8
0
  6
Continuous
 62
     7
370
    25
100
AcDbLine
 10
2.3095918871
 20
6.0644397136
 30
0.0
 11
2.3077583183
 21
6.0906609288
 31
0.0
  0
ELLIPSE
  5
FF
330
1F
100
AcDbEntity
  8
0
  6
Continuous
 62
     7
370
    25
100
AcDbEllipse
 10
2.2880980544
 20
6.0892320246
 30
0.0
 11
-0.01294997001494158
 21
-0.01489723637964779
 31
-1.110223024625157E-16
210
-3.690007939895413E-15
220
-4.244868556450254E-15
230
1.0
 40
0.9972646886
 41
2.357564018062787
 42
3.925621289116851
  0
LINE
  5
100
330
1F
100
AcDbEntity
  8
0
  6
Continuous
 62
     7
370
    25
100
AcDbLine
 10
2.2867768673
 20
6.1088998273
 30
0.0
 11
2.2011362566
 21
6.1029112512
 31
0.0
  0
SPLINE
  5
101
330
1F
100
AcDbEntity
  8
0
  6
Continuous
 62
     7
370
    25
100
AcDbSpline
210
0.0
220
0.0
230
1.0
 70
     8
 71
     3
 72
    14
 73
    10
 74
     0
 42
0.000000001
 43
0.00000001
 40
0.0
 40
0.0
 40
0.0
 40
0.0
 40
0.2500000000000001
 40
0.2500000000000001
 40
0.5
 40
0.5
 40
0.75
 40
0.75
 40
1.0
 40
1.0
 40
1.0
 40
1.0
 10
2.169620727017647
 20
6.133622481424109
 30
0.0
 10
2.169437029418699
 20
6.129446854142139
 30
0.0
 10
2.170141529775768
 20
6.125300256938109
 30
0.0
 10
2.17318535634888
 20
6.117610185581807
 30
0.0
 10
2.175541494375923
 20
6.114077233570126
 30
0.0
 10
2.181443331674446
 20
6.108325732568105
 30
0.0
 10
2.185036624299225
 20
6.106061232777607
 30
0.0
 10
2.192801400990925
 20
6.103217296819725
 30
0.0
 10
2.196966755621415
 20
6.102619692292941
 30
0.0
 10
2.201136242344341
 20
6.102911251206917
 30
0.0
  0
ARC
  5
102
330
1F
100
AcDbEntity
  8
0
  6
Continuous
 62
     7
370
    25
100
AcDbCircle
 10
2.6317721519
 20
6.1132911392
 30
0.0
 40
0.4625984251968508
100
AcDbArc
 50
160.3298556839
 51
177.4810215779
  0
LINE
  5
103
330
1F
100
AcDbEntity
  8
0
  6
Continuous
 62
     7
370
    25
100
AcDbLine
 10
2.186298858
 20
6.2764409612
 30
0.0
 11
2.196168164
 21
6.2690039104
 31
0.0
  0
ARC
  5
104
330
1F
100
AcDbEntity
  8
0
  6
Continuous
 62
     7
370
    25
100
AcDbCircle
 10
2.6317721519
 20
6.1132911392
 30
0.0
 40
0.4744094488188975
100
AcDbArc
 50
126.114716116
 51
159.885283884
  0
LINE
  5
105
330
1F
100
AcDbEntity
  8
0
  6
Continuous
 62
     7
370
    25
100
AcDbLine
 10
2.3620226897
 20
6.4891002945
 30
0.0
 11
2.3521533837
 21
6.4965373819
 31
0.0
  0
ARC
  5
106
330
1F
100
AcDbEntity
  8
0
  6
Continuous
 62
     7
370
    25
100
AcDbCircle
 10
2.6317721519
 20
6.1132911392
 30
0.0
 40
0.4625984251968506
100
AcDbArc
 50
62.3298556839
 51
125.6701443161
  0
LINE
  5
107
330
1F
100
AcDbEntity
  8
0
  6
Continuous
 62
     7
370
    25
100
AcDbLine
 10
2.855332121
 20
6.5317230421
 30
0.0
 11
2.8465938953
 21
6.5229848164
 31
0.0
  0
ARC
  5
108
330
1F
100
AcDbEntity
  8
0
  6
Continuous
 62
     7
370
    25
100
AcDbCircle
 10
2.6317721519
 20
6.1132911392
 30
0.0
 40
0.4744094488188972
100
AcDbArc
 50
28.114716116
 51
61.885283884
  0
LINE
  5
109
330
1F
100
AcDbEntity
  8
0
  6
Continuous
 62
     7
370
    25
100
AcDbLine
 10
3.0414658291
 20
6.3281128826
 30
0.0
 11
3.0502040548
 21
6.3368511083
 31
0.0
  0
ARC
  5
10A
330
1F
100
AcDbEntity
  8
0
  6
Continuous
 62
     7
370
    25
100
AcDbCircle
 10
2.6317721519
 20
6.1132911392
 30
0.0
 40
0.4625984251968507
100
AcDbArc
 50
10.5189784221
 51
27.6701443161
  0
SPLINE
  5
10B
330
1F
100
AcDbEntity
  8
0
  6
Continuous
 62
     7
370
    25
100
AcDbSpline
210
0.0
220
0.0
230
1.0
 70
     8
 71
     3
 72
    14
 73
    10
 74
     0
 42
0.000000001
 43
0.00000001
 40
0.0
 40
0.0
 40
0.0
 40
0.0
 40
0.25
 40
0.25
 40
0.5
 40
0.5
 40
0.75
 40
0.75
 40
1.0
 40
1.0
 40
1.0
 40
1.0
 10
3.059661743589184
 20
6.162945202481173
 30
0.0
 10
3.063831228116969
 20
6.163236761241649
 30
0.0
 10
3.067871031343308
 20
6.164407478728156
 30
0.0
 10
3.075165808437696
 20
6.168304696198167
 30
0.0
 10
3.07840841946431
 20
6.171046704622855
 30
0.0
 10
3.083452683195185
 20
6.177563364214549
 30
0.0
 10
3.085294586258276
 20
6.181390517669828
 30
0.0
 10
3.087238581382504
 20
6.189427968396592
 30
0.0
 10
3.087359420208908
 20
6.193634238350962
 30
0.0
 10
3.086596374943522
 20
6.1977436651134
 30
0.0
  0
LINE
  5
10C
330
1F
100
AcDbEntity
  8
0
  6
Continuous
 62
     7
370
    25
100
AcDbLine
 10
3.0596617455
 20
6.1629452027
 30
0.0
 11
2.9544109281
 21
6.1555853482
 31
0.0
  0
ELLIPSE
  5
10D
330
1F
100
AcDbEntity
  8
0
  6
Continuous
 62
     7
370
    25
100
AcDbEllipse
 10
2.6322216772
 20
6.1068626283
 30
0.0
 11
-0.03705769887620169
 21
0.5299497839108103
 31
0.0
210
0.0
220
0.0
230
1.0
 40
0.9999264238
 41
1.791719316478207
 42
1.93735808937099
  0
SPLINE
  5
10E
330
1F
100
AcDbEntity
  8
0
  6
Continuous
 62
     7
370
    25
100
AcDbSpline
210
0.0
220
0.0
230
1.0
 70
     8
 71
     3
 72
    11
 73
     7
 74
     0
 42
0.000000001
 43
0.00000001
 40
0.0
 40
0.0
 40
0.0
 40
0.0
 40
0.0020000000503875
 40
0.0020000000503875
 40
0.0020000000503875
 40
0.0023066344377759
 40
0.0023066344377759
 40
0.0023066344377759
 40
0.0023066344377759
 10
3.163829878146317
 20
6.138529562619123
 30
0.0
 10
3.16526850385209
 20
6.137148141166234
 30
0.0
 10
3.166701215235627
 20
6.135767179651891
 30
0.0
 10
3.168128164008566
 20
6.13438666749285
 30
0.0
 10
3.168346939789759
 20
6.134175011242978
 30
0.0
 10
3.168565580102938
 20
6.133963365555263
 30
0.0
 10
3.16878408548181
 20
6.133751730392069
 30
0.0
  0
ARC
  5
10F
330
1F
100
AcDbEntity
  8
0
  6
Continuous
 62
     7
370
    25
100
AcDbCircle
 10
2.6317721519
 20
6.1132911392
 30
0.0
 40
0.5326559884901191
100
AcDbArc
 50
2.7158180955
 51
197.3352013401
  0
SPLINE
  5
110
330
1F
100
AcDbEntity
  8
0
  6
Continuous
 62
     7
370
    25
100
AcDbSpline
210
0.0
220
0.0
230
1.0
 70
     8
 71
     3
 72
     8
 73
     4
 74
     0
 42
0.000000001
 43
0.00000001
 40
0.0
 40
0.0
 40
0.0
 40
0.0
 40
0.0009084764481004
 40
0.0009084764481004
 40
0.0009084764481004
 40
0.0009084764481004
 10
2.855332118238272
 20
6.531723053151137
 30
0.0
 10
2.861066536642671
 20
6.538072842352205
 30
0.0
 10
2.866795861606945
 20
6.544418058364653
 30
0.0
 10
2.872520838266426
 20
6.550759368281334
 30
0.0
  0
ARC
  5
111
330
1F
100
AcDbEntity
  8
0
  6
Continuous
 62
     7
370
    25
100
AcDbCircle
 10
2.6317721519
 20
6.1132911392
 30
0.0
 40
0.4993379430885337
100
AcDbArc
 50
28.8249860196
 51
61.1750139804
  0
SPLINE
  5
112
330
1F
100
AcDbEntity
  8
0
  6
Continuous
 62
     7
370
    25
100
AcDbSpline
210
0.0
220
0.0
230
1.0
 70
     8
 71
     3
 72
     8
 73
     4
 74
     0
 42
0.000000001
 43
0.00000001
 40
0.0
 40
0.0
 40
0.0
 40
0.0
 40
0.0009084764481004
 40
0.0009084764481004
 40
0.0009084764481004
 40
0.0009084764481004
 10
3.069240380939563
 20
6.354039825608196
 30
0.0
 10
3.062899071022882
 20
6.348314848948715
 30
0.0
 10
3.056553855010435
 20
6.342585523984439
 30
0.0
 10
3.050204065809368
 20
6.336851105580041
 30
0.0
  0
LWPOLYLINE
  5
113
330
1F
100
AcDbEntity
  8
0
  6
Continuous
 62
     7
370
    25
100
AcDbPolyline
 90
        3
 70
   128
 43
0.0
 10
2.8465938953
 20
6.5229848164
 10
2.8460890744
 20
6.5262739251
 10
2.8460041187
 20
6.5268223421
  0
LWPOLYLINE
  5
114
330
1F
100
AcDbEntity
  8
0
  6
Continuous
 62
     7
370
    25
100
AcDbPolyline
 90
        3
 70
   128
 43
0.0
 10
2.3620744075
 20
6.4931077682
 10
2.3620648559
 20
6.4924276461
 10
2.3620226897
 20
6.4891002945
  0
LWPOLYLINE
  5
115
330
1F
100
AcDbEntity
  8
0
  6
Continuous
 62
     7
370
    25
100
AcDbPolyline
 90
        3
 70
   128
 43
0.0
 10
3.0458179288
 20
6.3274433937
 10
3.0447549378
 20
6.3276080618
 10
3.0414658291
 20
6.3281128826
  0
ARC
  5
116
330
1F
100
AcDbEntity
  8
0
  6
Continuous
 62
     7
370
    25
100
AcDbCircle
 10
2.6317721519
 20
6.1132911392
 30
0.0
 40
0.4661492263495469
100
AcDbArc
 50
25.1618915763
 51
27.348853382
  0
LINE
  5
117
330
1F
100
AcDbEntity
  8
0
  6
Continuous
 62
     7
370
    25
100
AcDbLine
 10
3.0536884846
 20
6.311487253
 30
0.0
 11
3.0551261313
 21
6.3112351909
 31
0.0
  0
ARC
  5
118
330
1F
100
AcDbEntity
  8
0
  6
Continuous
 62
     7
370
    25
100
AcDbCircle
 10
2.6317721519
 20
6.1132911392
 30
0.0
 40
0.4673440115098813
100
AcDbArc
 50
9.8234581366
 51
25.0589836761
  0
SPLINE
  5
119
330
1F
100
AcDbEntity
  8
0
  6
Continuous
 62
     7
370
    25
100
AcDbSpline
210
0.0
220
0.0
230
1.0
 70
     8
 71
     3
 72
    11
 73
     7
 74
     0
 42
0.000000001
 43
0.00000001
 40
0.0
 40
0.0
 40
0.0
 40
0.0
 40
0.0011978952935042
 40
0.0011978952935042
 40
0.0011978952935042
 40
0.0023076140623655
 40
0.0023076140623655
 40
0.0023076140623655
 40
0.0023076140623655
 10
3.086596374943521
 20
6.1977436651134
 30
0.0
 10
3.087583159417461
 20
6.196927126548712
 30
0.0
 10
3.088566746374007
 20
6.196110707559077
 30
0.0
 10
3.089547199220397
 20
6.195294406955273
 30
0.0
 10
3.090455481384226
 20
6.194538193863036
 30
0.0
 10
3.091361073864473
 20
6.193782082342055
 30
0.0
 10
3.092264025532542
 20
6.193026071430694
 30
0.0
  0
LINE
  5
11A
330
1F
100
AcDbEntity
  8
0
  6
Continuous
 62
     7
370
    25
100
AcDbLine
 10
3.0709432519
 20
6.3537969626
 30
0.0
 11
3.0570420525
 21
6.3398957815
 31
0.0
  0
SPLINE
  5
11B
330
1F
100
AcDbEntity
  8
0
  6
Continuous
 62
     7
370
    25
100
AcDbSpline
210
0.0
220
0.0
230
1.0
 70
     8
 71
     3
 72
    10
 73
     6
 74
     0
 42
0.000000001
 43
0.00000001
 40
0.0
 40
0.0
 40
0.0
 40
0.0
 40
0.5
 40
0.5
 40
1.0
 40
1.0
 40
1.0
 40
1.0
 10
3.045817940530238
 20
6.3274433891535
 30
0.0
 10
3.045534684188091
 20
6.327487369019125
 30
0.0
 10
3.046697618418425
 20
6.328972407198593
 30
0.0
 10
3.050905470373142
 20
6.333629704897616
 30
0.0
 10
3.053917355774552
 20
6.336771067596144
 30
0.0
 10
3.057042069666625
 20
6.339895781488216
 30
0.0
  0
LINE
  5
11C
330
1F
100
AcDbEntity
  8
0
  6
Continuous
 62
     7
370
    25
100
AcDbLine
 10
3.0709432519
 20
6.3537969626
 30
0.0
 11
3.0692403982
 21
6.3540398214
 31
0.0
  0
SPLINE
  5
11D
330
1F
100
AcDbEntity
  8
0
  6
Continuous
 62
     7
370
    25
100
AcDbSpline
210
0.0
220
0.0
230
1.0
 70
     8
 71
     3
 72
    10
 73
     6
 74
     0
 42
0.000000001
 43
0.00000001
 40
0.0
 40
0.0
 40
0.0
 40
0.0
 40
0.3360753638069756
 40
0.672229527626683
 40
1.0
 40
1.0
 40
1.0
 40
1.0
 10
2.85837679414257
 20
6.538561039819657
 30
0.0
 10
2.857003890048557
 20
6.537202572084697
 30
0.0
 10
2.854257759953983
 20
6.534485318093139
 30
0.0
 10
2.850456417267393
 20
6.530897002755954
 30
0.0
 10
2.848704322604767
 20
6.529371391387955
 30
0.0
 10
2.847839337538835
 20
6.528618218013317
 30
0.0
  0
LINE
  5
11E
330
1F
100
AcDbEntity
  8
0
  6
Continuous
 62
     7
370
    25
100
AcDbLine
 10
2.8583767941
 20
6.5385610398
 30
0.0
 11
2.8722779752
 21
6.5524622392
 31
0.0
  0
LINE
  5
11F
330
1F
100
AcDbEntity
  8
0
  6
Continuous
 62
     7
370
    25
100
AcDbLine
 10
2.8722779752
 20
6.5524622392
 30
0.0
 11
2.8725208341
 21
6.5507593856
 31
0.0
  0
SPLINE
  5
120
330
1F
100
AcDbEntity
  8
0
  6
Continuous
 62
     7
370
    25
100
AcDbSpline
210
0.0
220
0.0
230
1.0
 70
     8
 71
     3
 72
    10
 73
     6
 74
     0
 42
0.000000001
 43
0.00000001
 40
0.0
 40
0.0
 40
0.0
 40
0.0
 40
0.0729533334577494
 40
0.6548952948774723
 40
1.0
 40
1.0
 40
1.0
 40
1.0
 10
3.158267906441517
 20
6.116896060564897
 30
0.0
 10
3.158612111548352
 20
6.117327214431907
 30
0.0
 10
3.161702008805334
 20
6.121197642628821
 30
0.0
 10
3.163602279462664
 20
6.12897766466365
 30
0.0
 10
3.16376813892997
 20
6.135938356960624
 30
0.0
 10
3.163829882189098
 20
6.13852956164243
 30
0.0
  0
SPLINE
  5
121
330
1F
100
AcDbEntity
  8
0
  6
Continuous
 62
     7
370
    25
100
AcDbSpline
210
0.0
220
0.0
230
1.0
 70
     8
 71
     3
 72
    11
 73
     7
 74
     0
 42
0.000000001
 43
0.00000001
 40
0.0
 40
0.0
 40
0.0
 40
0.0
 40
0.0011094581473307
 40
0.0011094581473307
 40
0.0011094581473307
 40
0.0023070670608566
 40
0.0023070670608566
 40
0.0023070670608566
 40
0.0023070670608566
 10
3.065266184533089
 20
6.158579928617963
 30
0.0
 10
3.06437291202726
 20
6.159280048489517
 30
0.0
 10
3.0634772113804
 20
6.159979991178826
 30
0.0
 10
3.06257903993889
 20
6.16067975350732
 30
0.0
 10
3.061609505284681
 20
6.161435114673162
 30
0.0
 10
3.060637091602551
 20
6.162190265705378
 30
0.0
 10
3.059661743589184
 20
6.162945202481173
 30
0.0
  0
SPLINE
  5
122
330
1F
100
AcDbEntity
  8
0
  6
Continuous
 62
     7
370
    25
100
AcDbSpline
210
0.0
220
0.0
230
1.0
 70
     8
 71
     3
 72
    14
 73
    10
 74
     0
 42
0.000000001
 43
0.00000001
 40
0.0
 40
0.0
 40
0.0
 40
0.0
 40
0.25
 40
0.25
 40
0.5
 40
0.5
 40
0.75
 40
0.75
 40
1.0
 40
1.0
 40
1.0
 40
1.0
 10
3.092264025532542
 20
6.193026071430694
 30
0.0
 10
3.0929718957998
 20
6.188937919641943
 30
0.0
 10
3.092808306959747
 20
6.184768225288542
 30
0.0
 10
3.090805776208238
 20
6.176804093582414
 30
0.0
 10
3.088949833911058
 20
6.173021287084357
 30
0.0
 10
3.08390409880402
 20
6.166582143340242
 30
0.0
 10
3.080671553200036
 20
6.163873875767886
 30
0.0
 10
3.073425824501917
 20
6.160029139514327
 30
0.0
 10
3.069405071565472
 20
6.158869347793132
 30
0.0
 10
3.065266184533089
 20
6.158579928617963
 30
0.0
  0
LINE
  5
123
330
1F
100
AcDbEntity
  8
0
  6
Continuous
 62
     7
370
    25
100
AcDbLine
 10
2.9594760029
 20
6.151182358
 30
0.0
 11
2.9544109281
 21
6.1555853482
 31
0.0
  0
LINE
  5
124
330
1F
100
AcDbEntity
  8
0
  6
Continuous
 62
     7
370
    25
100
AcDbLine
 10
2.9594760029
 20
6.151182358
 30
0.0
 11
3.0312351406
 21
6.1562002456
 31
0.0
  0
LINE
  5
125
330
1F
100
AcDbEntity
  8
0
  6
Continuous
 62
     7
370
    25
100
AcDbLine
 10
3.0628347689
 20
6.1584099093
 30
0.0
 11
3.0652661808
 21
6.1585799306
 31
0.0
  0
LINE
  5
126
330
1F
100
AcDbEntity
  8
0
  6
Continuous
 62
     7
370
    25
100
AcDbLine
 10
2.9639510079
 20
6.0871865777
 30
0.0
 11
2.961836979
 21
6.1174185537
 31
0.0
  0
LINE
  5
127
330
1F
100
AcDbEntity
  8
0
  6
Continuous
 62
     7
370
    25
100
AcDbLine
 10
2.9596069381
 20
6.1493097969
 30
0.0
 11
2.9594760029
 21
6.151182358
 31
0.0
  0
LINE
  5
128
330
1F
100
AcDbEntity
  8
0
  6
Continuous
 62
     7
370
    25
100
AcDbLine
 10
2.3324861243
 20
6.5147163219
 30
0.0
 11
2.3481866829
 21
6.5028850786
 31
0.0
  0
SPLINE
  5
129
330
1F
100
AcDbEntity
  8
0
  6
Continuous
 62
     7
370
    25
100
AcDbSpline
210
0.0
220
0.0
230
1.0
 70
     8
 71
     3
 72
    11
 73
     7
 74
     0
 42
0.000000001
 43
0.00000001
 40
0.0
 40
0.0
 40
0.0
 40
0.0
 40
0.1634630182800808
 40
0.4422200510293599
 40
0.734183836111536
 40
1.0
 40
1.0
 40
1.0
 40
1.0
 10
2.360578773081121
 20
6.494179999179893
 30
0.0
 10
2.360212670767732
 20
6.494393437727648
 30
0.0
 10
2.359222246233716
 20
6.494970857663201
 30
0.0
 10
2.356285533539793
 20
6.496974097642243
 30
0.0
 10
2.352384424249891
 20
6.499750925345904
 30
0.0
 10
2.349541506564742
 20
6.501873528676495
 30
0.0
 10
2.348186682902271
 20
6.502885078618073
 30
0.0
  0
SPLINE
  5
12A
330
1F
100
AcDbEntity
  8
0
  6
Continuous
 62
     7
370
    25
100
AcDbSpline
210
0.0
220
0.0
230
1.0
 70
     8
 71
     3
 72
     8
 73
     4
 74
     0
 42
0.000000001
 43
0.00000001
 40
0.0
 40
0.0
 40
0.0
 40
0.0
 40
0.0009084764481004
 40
0.0009084764481004
 40
0.0009084764481004
 40
0.0009084764481004
 10
2.332482605190208
 20
6.512996216314706
 30
0.0
 10
2.339034406535637
 20
6.507513382344847
 30
0.0
 10
2.345591057491917
 20
6.50202728546014
 30
0.0
 10
2.352153388784152
 20
6.496537368762625
 30
0.0
  0
LINE
  5
12B
330
1F
100
AcDbEntity
  8
0
  6
Continuous
 62
     7
370
    25
100
AcDbLine
 10
2.3324861243
 20
6.5147163219
 30
0.0
 11
2.3324826043
 21
6.5129961985
 31
0.0
  0
SPLINE
  5
12C
330
1F
100
AcDbEntity
  8
0
  6
Continuous
 62
     7
370
    25
100
AcDbSpline
210
0.0
220
0.0
230
1.0
 70
     8
 71
     3
 72
     8
 73
     4
 74
     0
 42
0.000000001
 43
0.00000001
 40
0.0
 40
0.0
 40
0.0
 40
0.0
 40
0.0009084764481004
 40
0.0009084764481004
 40
0.0009084764481004
 40
0.0009084764481004
 10
2.186298854844611
 20
6.276440968355891
 30
0.0
 10
2.179212784564011
 20
6.281235859941015
 30
0.0
 10
2.172131951835931
 20
6.286026344119866
 30
0.0
 10
2.165055592356823
 20
6.290813065934787
 30
0.0
  0
ARC
  5
12D
330
1F
100
AcDbEntity
  8
0
  6
Continuous
 62
     7
370
    25
100
AcDbCircle
 10
2.6317721519
 20
6.1132911392
 30
0.0
 40
0.499337943088534
100
AcDbArc
 50
126.8249860196
 51
159.1750139804
  0
LWPOLYLINE
  5
12E
330
1F
100
AcDbEntity
  8
0
  6
Continuous
 62
     7
370
    25
100
AcDbPolyline
 90
        3
 70
   128
 43
0.0
 10
2.196168164
 20
6.2690039104
 10
2.1929813175
 20
6.2680462615
 10
2.1919515827
 20
6.2677352401
  0
SPLINE
  5
12F
330
1F
100
AcDbEntity
  8
0
  6
Continuous
 62
     7
370
    25
100
AcDbSpline
210
0.0
220
0.0
230
1.0
 70
     8
 71
     3
 72
    10
 73
     6
 74
     0
 42
0.000000001
 43
0.00000001
 40
0.0
 40
0.0
 40
0.0
 40
0.0
 40
0.5
 40
0.5
 40
1.0
 40
1.0
 40
1.0
 40
1.0
 10
2.179103660983279
 20
6.278504347486232
 30
0.0
 10
2.182634750727342
 20
6.275843480508315
 30
0.0
 10
2.186042937490016
 20
6.27316118126803
 30
0.0
 10
2.190868230603666
 20
6.269126694982189
 30
0.0
 10
2.192226144992591
 20
6.267818262877193
 30
0.0
 10
2.191951595722063
 20
6.267735237835192
 30
0.0
  0
LINE
  5
130
330
1F
100
AcDbEntity
  8
0
  6
Continuous
 62
     7
370
    25
100
AcDbLine
 10
2.1791036578
 20
6.278504354
 30
0.0
 11
2.1634030992
 21
6.2903355607
 31
0.0
  0
LINE
  5
131
330
1F
100
AcDbEntity
  8
0
  6
Continuous
 62
     7
370
    25
100
AcDbLine
 10
2.1634030992
 20
6.2903355607
 30
0.0
 11
2.1650556101
 21
6.2908130652
 31
0.0
  0
LINE
  5
132
330
1F
100
AcDbEntity
  8
0
  6
Continuous
 62
     7
370
    25
100
AcDbLine
 10
2.1849897632
 20
6.2503893205
 30
0.0
 11
2.1863783138
 21
6.2508390136
 31
0.0
  0
ARC
  5
133
330
1F
100
AcDbEntity
  8
0
  6
Continuous
 62
     7
370
    25
100
AcDbCircle
 10
2.6317721519
 20
6.1132911392
 30
0.0
 40
0.4661492263495476
100
AcDbArc
 50
160.651146618
 51
162.8381084237
  0
SPLINE
  5
134
330
1F
100
AcDbEntity
  8
0
  6
Continuous
 62
     7
370
    25
100
AcDbSpline
210
0.0
220
0.0
230
1.0
 70
     8
 71
     3
 72
    11
 73
     7
 74
     0
 42
0.000000001
 43
0.00000001
 40
0.0
 40
0.0
 40
0.0
 40
0.0
 40
0.0011097187731597
 40
0.0011097187731597
 40
0.0011097187731597
 40
0.0023076140700074
 40
0.0023076140700074
 40
0.0023076140700074
 40
0.0023076140700074
 10
2.164664795756448
 20
6.128162014531195
 30
0.0
 10
2.165453743578502
 20
6.12903633458049
 30
0.0
 10
2.166245292510383
 20
6.1299111217903
 30
0.0
 10
2.167039490814047
 20
6.130786383914484
 30
0.0
 10
2.167896794873943
 20
6.131731192999412
 30
0.0
 10
2.168757186066924
 20
6.132676555501877
 30
0.0
 10
2.169620727017647
 20
6.133622481424109
 30
0.0
  0
ARC
  5
135
330
1F
100
AcDbEntity
  8
0
  6
Continuous
 62
     7
370
    25
100
AcDbCircle
 10
2.6317721519
 20
6.1132911392
 30
0.0
 40
0.4673440115098816
100
AcDbArc
 50
162.9410163239
 51
178.1765418634
  0
LINE
  5
136
330
1F
100
AcDbEntity
  8
0
  6
Continuous
 62
     7
370
    25
100
AcDbLine
 10
2.2823738748
 20
6.1038347656
 30
0.0
 11
2.2867768673
 21
6.1088998273
 31
0.0
  0
LINE
  5
137
330
1F
100
AcDbEntity
  8
0
  6
Continuous
 62
     7
370
    25
100
AcDbLine
 10
2.3077583183
 20
6.0906609288
 30
0.0
 11
2.3033553258
 21
6.0855958677
 31
0.0
  0
ELLIPSE
  5
138
330
1F
100
AcDbEntity
  8
0
  6
Continuous
 62
     7
370
    25
100
AcDbEllipse
 10
2.2836950635
 20
6.0841669629
 30
0.0
 11
-0.01294997001494202
 21
-0.01489723637964868
 31
-5.551115123125783E-17
210
-3.973259690233638E-15
220
-2.723698058988618E-16
230
1.0
 40
0.9972646886
 41
2.357564018062706
 42
3.925621289116866
  0
LINE
  5
139
330
1F
100
AcDbEntity
  8
0
  6
Continuous
 62
     7
370
    25
100
AcDbLine
 10
2.2230232171
 20
6.0996845623
 30
0.0
 11
2.2823738748
 21
6.1038347656
 31
0.0
  0
LINE
  5
13A
330
1F
100
AcDbEntity
  8
0
  6
Continuous
 62
     7
370
    25
100
AcDbLine
 10
2.3115961739
 20
5.9677464306
 30
0.0
 11
2.3184588113
 21
5.8841851992
 31
0.0
  0
LINE
  5
13B
330
1F
100
AcDbEntity
  8
0
  6
Continuous
 62
     7
370
    25
100
AcDbLine
 10
2.3033553258
 20
6.0855958677
 30
0.0
 11
2.3049416175
 21
6.0629107954
 31
0.0
  0
LINE
  5
13C
330
1F
100
AcDbEntity
  8
0
  6
Continuous
 62
     7
370
    25
100
AcDbLine
 10
2.3072374743
 20
6.0300787414
 30
0.0
 11
2.3115961739
 21
5.9677464306
 31
0.0
  0
SPLINE
  5
13D
330
1F
100
AcDbEntity
  8
0
  6
Continuous
 62
     7
370
    25
100
AcDbSpline
210
0.0
220
0.0
230
1.0
 70
     8
 71
     3
 72
    12
 73
     8
 74
     0
 42
0.000000001
 43
0.00000001
 40
0.0
 40
0.0
 40
0.0
 40
0.0
 40
0.1310449866928649
 40
0.350884264895703
 40
0.5703269629261363
 40
0.7895501689944824
 40
1.0
 40
1.0
 40
1.0
 40
1.0
 10
2.192210299754759
 20
6.098202788854917
 30
0.0
 10
2.19022966549073
 20
6.098291493552201
 30
0.0
 10
2.184926346261968
 20
6.098529008036997
 30
0.0
 10
2.177025349819147
 20
6.10259681296993
 30
0.0
 10
2.169853491094584
 20
6.109531029665767
 30
0.0
 10
2.165265806484903
 20
6.118481907220119
 30
0.0
 10
2.164862379426119
 20
6.124979536249216
 30
0.0
 10
2.164664784629567
 20
6.128162014117557
 30
0.0
  0
LINE
  5
13E
330
1F
100
AcDbEntity
  8
0
  6
Continuous
 62
     7
370
    25
100
AcDbLine
 10
2.1233105057
 20
5.954580206
 30
0.0
 11
2.3115961739
 21
5.9677464306
 31
0.0
  0
ARC
  5
13F
330
1F
100
AcDbEntity
  8
0
  6
Continuous
 62
     7
370
    25
100
AcDbCircle
 10
2.6317721519
 20
6.1132911392
 30
0.0
 40
0.5007137839790534
100
AcDbArc
 50
28.7066912824
 51
61.2933087176
  0
ARC
  5
140
330
1F
100
AcDbEntity
  8
0
  6
Continuous
 62
     7
370
    25
100
AcDbCircle
 10
2.6317721519
 20
6.1132911392
 30
0.0
 40
0.500713783979053
100
AcDbArc
 50
126.7066912824
 51
159.2933087176
  0
ARC
  5
141
330
1F
100
AcDbEntity
  8
0
  6
Continuous
 62
     7
370
    25
100
AcDbCircle
 10
2.6317721519
 20
6.1132911392
 30
0.0
 40
0.5196251045724579
100
AcDbArc
 50
27.1372294933
 51
62.8627705067
  0
ARC
  5
142
330
1F
100
AcDbEntity
  8
0
  6
Continuous
 62
     7
370
    25
100
AcDbCircle
 10
2.6317721519
 20
6.1132911392
 30
0.0
 40
0.5196251045724581
100
AcDbArc
 50
125.1372294933
 51
160.8627705067
  0
LINE
  5
143
330
1F
100
AcDbEntity
  8
0
  6
Continuous
 62
     7
370
    25
100
AcDbLine
 10
2.1849897632
 20
6.2503893205
 30
0.0
 11
2.1408635529
 21
6.2836407997
 31
0.0
  0
LINE
  5
144
330
1F
100
AcDbEntity
  8
0
  6
Continuous
 62
     7
370
    25
100
AcDbLine
 10
3.0941951499
 20
6.3503042279
 30
0.0
 11
3.0551261313
 21
6.3112351909
 31
0.0
  0
LINE
  5
145
330
1F
100
AcDbEntity
  8
0
  6
Continuous
 62
     7
370
    25
100
AcDbLine
 10
2.3327088167
 20
6.538228037
 30
0.0
 11
2.3567961734
 21
6.52007689
 31
0.0
  0
LINE
  5
146
330
1F
100
AcDbEntity
  8
0
  6
Continuous
 62
     7
370
    25
100
AcDbLine
 10
2.8445176876
 20
6.551446621
 30
0.0
 11
2.8687852406
 21
6.5757141373
 31
0.0
  0
SPLINE
  5
147
330
1F
100
AcDbEntity
  8
0
  6
Continuous
 62
     7
370
    25
100
AcDbSpline
210
0.0
220
0.0
230
1.0
 70
    11
 71
     3
 72
    27
 73
    23
 74
     0
 42
0.000000001
 43
0.00000001
 40
0.0
 40
0.0
 40
0.0
 40
0.0
 40
0.0407674133180783
 40
0.0813943639346397
 40
0.1375205077111703
 40
0.2156238152091136
 40
0.2957294811320716
 40
0.3497528881699685
 40
0.3934718456612392
 40
0.4151471908650829
 40
0.4532250541477781
 40
0.4913043504932844
 40
0.5313932418415312
 40
0.5766081204984391
 40
0.6287607796875024
 40
0.6883174171477222
 40
0.7538630564442953
 40
0.8217727361118338
 40
0.8867245179494635
 40
0.9333700039406971
 40
0.9802530475305101
 40
1.0
 40
1.0
 40
1.0
 40
1.0
 10
2.666097580785117
 20
6.305486693981057
 30
0.0
 10
2.665130927287057
 20
6.302996343891294
 30
0.0
 10
2.663200950861867
 20
6.298024224126198
 30
0.0
 10
2.656601803608864
 20
6.291684739926907
 30
0.0
 10
2.646289061423913
 20
6.286618688591722
 30
0.0
 10
2.632264890847134
 20
6.284757857531488
 30
0.0
 10
2.618440476797135
 20
6.28694161017654
 30
0.0
 10
2.608015540900959
 20
6.292272431002432
 30
0.0
 10
2.602519108103301
 20
6.297948078337502
 30
0.0
 10
2.599300421810182
 20
6.303869067678149
 30
0.0
 10
2.597794179591862
 20
6.310167237558526
 30
0.0
 10
2.598578347098606
 20
6.317792834851719
 30
0.0
 10
2.601835351921937
 20
6.325228363196892
 30
0.0
 10
2.607707596107969
 20
6.332097795031336
 30
0.0
 10
2.6163811090422
 20
6.33768916565817
 30
0.0
 10
2.62760808893451
 20
6.340870106907726
 30
0.0
 10
2.640333436443226
 20
6.340431817034275
 30
0.0
 10
2.652583141057935
 20
6.335735719429122
 30
0.0
 10
2.661499101809367
 20
6.327767949405581
 30
0.0
 10
2.666279935303742
 20
6.318504773278494
 30
0.0
 10
2.667265634666234
 20
6.310975457924104
 30
0.0
 10
2.666364613886715
 20
6.306741500530091
 30
0.0
 10
2.666097580785117
 20
6.305486693981057
 30
0.0
  0
SPLINE
  5
148
330
1F
100
AcDbEntity
  8
0
  6
Continuous
 62
     7
370
    25
100
AcDbSpline
210
0.0
220
0.0
230
1.0
 70
    11
 71
     3
 72
    27
 73
    23
 74
     0
 42
0.000000001
 43
0.00000001
 40
0.0
 40
0.0
 40
0.0
 40
0.0
 40
0.0407674138703285
 40
0.0813943650372373
 40
0.1375205309882926
 40
0.2156238384515333
 40
0.2957295007423819
 40
0.349752935928186
 40
0.3934718940116896
 40
0.4151471980586247
 40
0.4532251077017186
 40
0.4913044045630608
 40
0.531393253152022
 40
0.576608132421427
 40
0.6287608180813349
 40
0.6883174289350008
 40
0.7538630673298221
 40
0.8217727650519082
 40
0.8867245159715789
 40
0.9333700025946893
 40
0.9802530936689782
 40
1.0
 40
1.0
 40
1.0
 40
1.0
 10
2.597446723012351
 20
6.226213689749566
 30
0.0
 10
2.598413376441686
 20
6.228704039977022
 30
0.0
 10
2.60034335272966
 20
6.233676160017036
 30
0.0
 10
2.60694250216703
 20
6.240015642885848
 30
0.0
 10
2.617255239037166
 20
6.245081708049076
 30
0.0
 10
2.631279412676229
 20
6.246942533184961
 30
0.0
 10
2.645103829281199
 20
6.24475878587106
 30
0.0
 10
2.655528761654915
 20
6.239427952535972
 30
0.0
 10
2.66102519131525
 20
6.233752306261232
 30
0.0
 10
2.664243886941014
 20
6.227831321289828
 30
0.0
 10
2.665750122218646
 20
6.221533148616126
 30
0.0
 10
2.664965958837451
 20
6.213907551527009
 30
0.0
 10
2.661708949092235
 20
6.206472027143212
 30
0.0
 10
2.655836705319183
 20
6.199602600055333
 30
0.0
 10
2.647163200933252
 20
6.194011209974068
 30
0.0
 10
2.635936211571997
 20
6.19083030964957
 30
0.0
 10
2.623210865044309
 20
6.191268554276178
 30
0.0
 10
2.610961168337766
 20
6.195964679127648
 30
0.0
 10
2.602045199358813
 20
6.203932433827536
 30
0.0
 10
2.59726436787955
 20
6.213195613703129
 30
0.0
 10
2.596278667622941
 20
6.220724929117172
 30
0.0
 10
2.597179690051381
 20
6.224958886238523
 30
0.0
 10
2.597446723012351
 20
6.226213689749566
 30
0.0
  0
LWPOLYLINE
  5
149
330
1F
100
AcDbEntity
  8
0
  6
Continuous
 62
     7
370
    25
100
AcDbPolyline
 90
        3
 70
   128
 43
0.0
 10
2.6480394629
 20
6.2768197418
 10
2.6317721519
 20
6.2776268575
 10
2.6155110867
 20
6.2768203651
  0
ARC
  5
14A
330
1F
100
AcDbEntity
  8
0
  6
Continuous
 62
     7
370
    25
100
AcDbCircle
 10
2.6317721519
 20
6.1132911392
 30
0.0
 40
0.4899191684799059
100
AcDbArc
 50
26.014000344
 51
28.3373420623
  0
ARC
  5
14B
330
1F
100
AcDbEntity
  8
0
  6
Continuous
 62
     7
370
    25
100
AcDbCircle
 10
2.6317721519
 20
6.1132911392
 30
0.0
 40
0.489919168479906
100
AcDbArc
 50
61.6626579377
 51
63.985999656
  0
ARC
  5
14C
330
1F
100
AcDbEntity
  8
0
  6
Continuous
 62
     7
370
    25
100
AcDbCircle
 10
2.6317721519
 20
6.1132911392
 30
0.0
 40
0.4899191684799061
100
AcDbArc
 50
159.6626579377
 51
161.985999656
  0
LINE
  5
14D
330
1F
100
AcDbEntity
  8
0
  6
Continuous
 62
     7
370
    25
100
AcDbLine
 10
2.1821739057
 20
6.2761475946
 30
0.0
 11
2.1686947714
 21
6.2626684603
 31
0.0
  0
CIRCLE
  5
14E
330
1F
100
AcDbEntity
  8
0
  6
Continuous
 62
     7
370
    25
100
AcDbCircle
 10
2.6317721519
 20
6.1132911392
 30
0.0
 40
0.6560398126934284
  0
ARC
  5
14F
330
1F
100
AcDbEntity
  8
0
  6
Continuous
 62
     7
370
    25
100
AcDbCircle
 10
2.6317721519
 20
6.1132911392
 30
0.0
 40
0.506727347800129
100
AcDbArc
 50
26.6666125818
 51
63.3333874182
  0
ARC
  5
150
330
1F
100
AcDbEntity
  8
0
  6
Continuous
 62
     7
370
    25
100
AcDbCircle
 10
2.6317721519
 20
6.1132911392
 30
0.0
 40
0.5067273478001293
100
AcDbArc
 50
124.6666125818
 51
161.3333874182
  0
LINE
  5
151
330
1F
100
AcDbEntity
  8
0
  6
Continuous
 62
     7
370
    25
100
AcDbLine
 10
2.3414762838
 20
6.5079417569
 30
0.0
 11
2.3431710158
 21
6.5091827625
 31
0.0
  0
LINE
  5
152
330
1F
100
AcDbEntity
  8
0
  6
Continuous
 62
     8
370
    25
100
AcDbLine
 10
3.0399863828
 20
6.110424104
 30
0.0
 11
3.0351781184
 21
6.1098798057
 31
0.0
  0
ARC
  5
153
330
1F
100
AcDbEntity
  8
0
  6
Continuous
 62
     8
370
    25
100
AcDbCircle
 10
3.0343175979
 20
6.1255660316
 30
0.0
 40
0.0161682743263528
100
AcDbArc
 50
290.5247294522
 51
75.3798579298
  0
LINE
  5
154
330
1F
100
AcDbEntity
  8
0
  6
Continuous
 62
     8
370
    25
100
AcDbLine
 10
2.2382095317
 20
6.0048681784
 30
0.0
 11
2.2429948064
 21
6.0055868918
 31
0.0
  0
ARC
  5
155
330
1F
100
AcDbEntity
  8
0
  6
Continuous
 62
     8
370
    25
100
AcDbCircle
 10
2.2397661379
 20
6.0209613548
 30
0.0
 40
0.0161682822237679
100
AcDbArc
 50
119.6202727956
 51
264.4752745271
  0
LINE
  5
156
330
1F
100
AcDbEntity
  8
0
  6
Continuous
 62
     8
370
    25
100
AcDbLine
 10
3.0617047519
 20
6.1555678629
 30
0.0
 11
3.0627371267
 21
6.1555294734
 31
0.0
  0
LINE
  5
157
330
1F
100
AcDbEntity
  8
0
  6
Continuous
 62
     8
370
    25
100
AcDbLine
 10
3.0312628236
 20
6.1566998094
 30
0.0
 11
3.0617047519
 21
6.1555678629
 31
0.0
  0
LINE
  5
158
330
1F
100
AcDbEntity
  8
0
  6
Continuous
 62
     8
370
    25
100
AcDbLine
 10
2.2055471324
 20
6.042852573
 30
0.0
 11
2.2045598571
 21
6.0425482936
 31
0.0
  0
LINE
  5
159
330
1F
100
AcDbEntity
  8
0
  6
Continuous
 62
     8
370
    25
100
AcDbLine
 10
2.2346588094
 20
6.0518249035
 30
0.0
 11
2.2055471324
 21
6.042852573
 31
0.0
  0
SPLINE
  5
15A
330
1F
100
AcDbEntity
  8
0
  6
Continuous
 62
     8
370
    25
100
AcDbSpline
210
0.0
220
0.0
230
1.0
 70
     8
 71
     3
 72
     9
 73
     5
 74
     0
 42
0.000000001
 43
0.00000001
 40
0.0
 40
0.0
 40
0.0
 40
0.0
 40
0.757883835655962
 40
1.0
 40
1.0
 40
1.0
 40
1.0
 10
2.201136256641344
 20
6.102911251233191
 30
0.0
 10
2.200276267769803
 20
6.102027973266696
 30
0.0
 10
2.199141543909652
 20
6.100862520297601
 30
0.0
 10
2.198017834114115
 20
6.099697803484392
 30
0.0
 10
2.197745765808583
 20
6.099415806717031
 30
0.0
  0
ARC
  5
15B
330
1F
100
AcDbEntity
  8
0
  6
Continuous
 62
     8
370
    25
100
AcDbCircle
 10
2.6317721519
 20
6.1132911392
 30
0.0
 40
0.1657504900118183
100
AcDbArc
 50
84.5889893222
 51
95.5575023452
  0
DIMENSION
  5
15C
330
1F
100
AcDbEntity
  8
ARAT
100
AcDbDimension
  2
_D
 10
2.2877041966
 20
5.5639859941
 30
0.0
 11
3.8254947216
 21
7.2114175436
 31
0.0
 70
   163
  1
<>
 71
     1
 42
-1.0
  3
SLDDIMSTYLE0
100
AcDbDiametricDimension
 15
2.9758401071
 25
6.6625962844
 35
0.0
 40
0.0
  0
SPLINE
  5
167
330
1F
100
AcDbEntity
  8
0
  6
Continuous
 62
     7
370
    25
100
AcDbSpline
210
0.0
220
0.0
230
1.0
 70
     8
 71
     3
 72
    26
 73
    22
 74
     0
 42
0.000000001
 43
0.00000001
 40
0.0
 40
0.0
 40
0.0
 40
0.0
 40
0.0286684126625602
 40
0.0832516245440719
 40
0.1378096344597556
 40
0.1923392291916249
 40
0.2468476722503655
 40
0.3013404830994181
 40
0.3558222814829202
 40
0.410296897774489
 40
0.4647678156607411
 40
0.5192382402584309
 40
0.5737105360939166
 40
0.6281876957541482
 40
0.6826731853948812
 40
0.7371709456052414
 40
0.7916855751885561
 40
0.8462226019942233
 40
0.9007889534869629
 40
0.9553938115269328
 40
1.0
 40
1.0
 40
1.0
 40
1.0
 10
6.411349750463087
 20
2.735983907226342
 30
0.0
 10
6.411089611083623
 20
2.731903512030128
 30
0.0
 10
6.410334179445215
 20
2.720054250166031
 30
0.0
 10
6.409212076252211
 20
2.699698759889638
 30
0.0
 10
6.408046422754166
 20
2.67473500928422
 30
0.0
 10
6.40706400283544
 20
2.649046211490048
 30
0.0
 10
6.406266319929336
 20
2.622772013788988
 30
0.0
 10
6.405657584866248
 20
2.596030769176498
 30
0.0
 10
6.405240274183265
 20
2.568949535244086
 30
0.0
 10
6.405016281727772
 20
2.541655698695501
 30
0.0
 10
6.404986578768714
 20
2.514278256296787
 30
0.0
 10
6.405151286846887
 20
2.486946710572966
 30
0.0
 10
6.405509639210306
 20
2.459790454629968
 30
0.0
 10
6.406059995662266
 20
2.432937908937645
 30
0.0
 10
6.406799897446098
 20
2.406516007358716
 30
0.0
 10
6.407725922067294
 20
2.380648342367089
 30
0.0
 10
6.408834372315539
 20
2.355459501943903
 30
0.0
 10
6.410118905665151
 20
2.331055281501341
 30
0.0
 10
6.411579656642314
 20
2.307593603645398
 30
0.0
 10
6.413090833579262
 20
2.286400577105173
 30
0.0
 10
6.414186458751328
 20
2.273623655104532
 30
0.0
 10
6.414679061789382
 20
2.267879034813773
 30
0.0
  0
SPLINE
  5
168
330
1F
100
AcDbEntity
  8
0
  6
Continuous
 62
     7
370
    25
100
AcDbSpline
210
0.0
220
0.0
230
1.0
 70
     8
 71
     3
 72
    27
 73
    23
 74
     0
 42
0.000000001
 43
0.00000001
 40
0.0
 40
0.0
 40
0.0
 40
0.0
 40
0.0082002894179687
 40
0.0620015431900147
 40
0.1158874444716618
 40
0.169836008413991
 40
0.2238316689113239
 40
0.2778628106626864
 40
0.3319208101863863
 40
0.3859989872381892
 40
0.440091985288992
 40
0.4941953838075244
 40
0.5483053579908037
 40
0.6024186241528071
 40
0.6565313836503045
 40
0.7106399792766481
 40
0.7647408758881679
 40
0.8188303168010496
 40
0.8729040692391239
 40
0.9269566183746198
 40
0.9809815323767516
 40
1.0
 40
1.0
 40
1.0
 40
1.0
 10
6.446293836838103
 20
2.267879034813773
 30
0.0
 10
6.446199373746091
 20
2.268882980045451
 30
0.0
 10
6.445485148042496
 20
2.276473706478336
 30
0.0
 10
6.444284910295837
 20
2.291864658911565
 30
0.0
 10
6.442713650095554
 20
2.314010110880849
 30
0.0
 10
6.441314110019932
 20
2.337323301821781
 30
0.0
 10
6.440077663687445
 20
2.361532130922229
 30
0.0
 10
6.439015677941818
 20
2.386555281106189
 30
0.0
 10
6.438132751658296
 20
2.41225642622322
 30
0.0
 10
6.437433943700341
 20
2.438510506084294
 30
0.0
 10
6.436922876254283
 20
2.465186584175618
 30
0.0
 10
6.436602282169948
 20
2.492152967912785
 30
0.0
 10
6.436473836299822
 20
2.519276593826376
 30
0.0
 10
6.436538244630267
 20
2.546423726491798
 30
0.0
 10
6.436795195122839
 20
2.57346052884512
 30
0.0
 10
6.437243385454489
 20
2.600253541204337
 30
0.0
 10
6.437880475067505
 20
2.626670855898008
 30
0.0
 10
6.438703315813626
 20
2.652580994166485
 30
0.0
 10
6.4397070617173
 20
2.677859540664492
 30
0.0
 10
6.440888468253209
 20
2.702366481765228
 30
0.0
 10
6.441943322602999
 20
2.720926359909307
 30
0.0
 10
6.442606214942215
 20
2.731244193643307
 30
0.0
 10
6.44277881369395
 20
2.733930670945502
 30
0.0
  0
SPLINE
  5
169
330
1F
100
AcDbEntity
  8
0
  6
Continuous
 62
     7
370
    25
100
AcDbSpline
210
0.0
220
0.0
230
1.0
 70
     8
 71
     3
 72
    17
 73
    13
 74
     0
 42
0.000000001
 43
0.00000001
 40
0.0
 40
0.0
 40
0.0
 40
0.0
 40
0.0562769243804498
 40
0.1632510715979684
 40
0.2702332956732617
 40
0.3772082364434762
 40
0.4841714569867968
 40
0.5911183090460189
 40
0.6980439661185892
 40
0.8049420177243524
 40
0.9118053105807984
 40
1.0
 40
1.0
 40
1.0
 40
1.0
 10
6.419549905656069
 20
3.010547848773593
 30
0.0
 10
6.419544535462333
 20
3.005107495127942
 30
0.0
 10
6.419528957320992
 20
2.989325830221732
 30
0.0
 10
6.419355822617616
 20
2.963236285639784
 30
0.0
 10
6.418967816592263
 20
2.932430114213602
 30
0.0
 10
6.418386510051399
 20
2.901915211320811
 30
0.0
 10
6.417617561374302
 20
2.871807715808061
 30
0.0
 10
6.416662828711071
 20
2.842222460907808
 30
0.0
 10
6.415527268474483
 20
2.813264892091671
 30
0.0
 10
6.414211736419952
 20
2.785067476493425
 30
0.0
 10
6.412820639443163
 20
2.759244220186587
 30
0.0
 10
6.411807732363105
 20
2.743226331684503
 30
0.0
 10
6.411349750463087
 20
2.735983907226342
 30
0.0
  0
SPLINE
  5
16A
330
1F
100
AcDbEntity
  8
0
  6
Continuous
 62
     7
370
    25
100
AcDbSpline
210
0.0
220
0.0
230
1.0
 70
     8
 71
     3
 72
    17
 73
    13
 74
     0
 42
0.000000001
 43
0.00000001
 40
0.0
 40
0.0
 40
0.0
 40
0.0
 40
0.0562866377369281
 40
0.1634053287939821
 40
0.2704909510475554
 40
0.377536807379831
 40
0.4845513489881558
 40
0.5915422832910152
 40
0.698514980739575
 40
0.8054743434917783
 40
0.9124250353477242
 40
1.0
 40
1.0
 40
1.0
 40
1.0
 10
6.44277881369395
 20
2.733930670945502
 30
0.0
 10
6.443076238277373
 20
2.73858165260617
 30
0.0
 10
6.443939689423142
 20
2.752083883651277
 30
0.0
 10
6.44524122659382
 20
2.775180827584832
 30
0.0
 10
6.446621560324655
 20
2.803423385367011
 30
0.0
 10
6.447820720759196
 20
2.832431846937512
 30
0.0
 10
6.448837481827194
 20
2.862082263021917
 30
0.0
 10
6.449667310951914
 20
2.892272388030446
 30
0.0
 10
6.450308724719704
 20
2.922891684167588
 30
0.0
 10
6.450755147193635
 20
2.953829071153071
 30
0.0
 10
6.451005025388771
 20
2.983092785808904
 30
0.0
 10
6.451033259107898
 20
3.002024733302355
 30
0.0
 10
6.451045969857723
 20
3.010547848773593
 30
0.0
  0
LINE
  5
16B
330
1F
100
AcDbEntity
  8
0
  6
Continuous
 62
     7
370
    25
100
AcDbLine
 10
6.4510459699
 20
3.0105478488
 30
0.0
 11
6.4510459699
 21
3.128658031
 31
0.0
  0
LINE
  5
16C
330
1F
100
AcDbEntity
  8
0
  6
Continuous
 62
     7
370
    25
100
AcDbLine
 10
6.4195499057
 20
3.128658031
 30
0.0
 11
6.4195499057
 21
3.0105478488
 31
0.0
  0
SPLINE
  5
16D
330
1F
100
AcDbEntity
  8
0
  6
Continuous
 62
     7
370
    25
100
AcDbSpline
210
0.0
220
0.0
230
1.0
 70
     8
 71
     3
 72
    27
 73
    23
 74
     0
 42
0.000000001
 43
0.00000001
 40
0.0
 40
0.0
 40
0.0
 40
0.0
 40
0.0166753867458552
 40
0.0697890081727101
 40
0.1230361820731268
 40
0.176394033872533
 40
0.2298425441509238
 40
0.2833645724977099
 40
0.3369452081267643
 40
0.3905718282182414
 40
0.4442331809527932
 40
0.4979195467715754
 40
0.5516218388365531
 40
0.6053317876422506
 40
0.6590403111455535
 40
0.7127375893457354
 40
0.7664152391938821
 40
0.8200642040160533
 40
0.8736746167840163
 40
0.9272352341627988
 40
0.9807331776341005
 40
0.9999999999999999
 40
0.9999999999999999
 40
0.9999999999999999
 40
0.9999999999999999
 10
6.350267249270437
 20
2.267879034813773
 30
0.0
 10
6.349602247733369
 20
2.269893300094295
 30
0.0
 10
6.34681911601879
 20
2.278323304043638
 30
0.0
 10
6.342383643416295
 20
2.294470342185361
 30
0.0
 10
6.337012566214299
 20
2.316223772530964
 30
0.0
 10
6.332205510991582
 20
2.339145853034386
 30
0.0
 10
6.327952436264495
 20
2.362998181451322
 30
0.0
 10
6.324291707406656
 20
2.387687738804075
 30
0.0
 10
6.321243099033075
 20
2.413077597422144
 30
0.0
 10
6.318826039413028
 20
2.43903871112881
 30
0.0
 10
6.317054847919353
 20
2.465436755183191
 30
0.0
 10
6.315940179844426
 20
2.492136427175013
 30
0.0
 10
6.315488725846046
 20
2.519000999741279
 30
0.0
 10
6.315703286841877
 20
2.545892996345735
 30
0.0
 10
6.316582877866988
 20
2.572674602009088
 30
0.0
 10
6.318122590439655
 20
2.599208405321209
 30
0.0
 10
6.320313499786149
 20
2.625358600742719
 30
0.0
 10
6.323143495786736
 20
2.65098992663541
 30
0.0
 10
6.326594062221453
 20
2.67597435733157
 30
0.0
 10
6.330651711106657
 20
2.700167788926566
 30
0.0
 10
6.334283388857637
 20
2.718533813206414
 30
0.0
 10
6.336570549567116
 20
2.728755777526333
 30
0.0
 10
6.337176149249941
 20
2.731462372792826
 30
0.0
  0
SPLINE
  5
16E
330
1F
100
AcDbEntity
  8
0
  6
Continuous
 62
     7
370
    25
100
AcDbSpline
210
0.0
220
0.0
230
1.0
 70
     8
 71
     3
 72
    26
 73
    22
 74
     0
 42
0.000000001
 43
0.00000001
 40
0.0
 40
0.0
 40
0.0
 40
0.0
 40
0.0289243238386137
 40
0.0840145064100018
 40
0.1390426240525441
 40
0.1940102969267404
 40
0.2489304709661445
 40
0.3038145142734327
 40
0.3586724500280559
 40
0.4135134445808639
 40
0.4683457677859178
 40
0.5231775398978721
 40
0.5780144726543692
 40
0.6328642918418451
 40
0.6877354085357965
 40
0.7426371682092898
 40
0.7975796689512273
 40
0.8525746976009463
 40
0.9076357172410149
 40
0.9627786173799557
 40
0.9999999999999999
 40
0.9999999999999999
 40
0.9999999999999999
 40
0.9999999999999999
 10
6.30646548485549
 20
2.738452205379017
 30
0.0
 10
6.305545644910745
 20
2.734310768944455
 30
0.0
 10
6.302873848696416
 20
2.722281421609682
 30
0.0
 10
6.298909897369413
 20
2.701639254158688
 30
0.0
 10
6.294796389819135
 20
2.676348938404764
 30
0.0
 10
6.291333785832497
 20
2.650354448770735
 30
0.0
 10
6.288524801918353
 20
2.623792048664093
 30
0.0
 10
6.286382521878663
 20
2.596776575895689
 30
0.0
 10
6.284914244117964
 20
2.569431400585948
 30
0.0
 10
6.28412577928617
 20
2.54188026231393
 30
0.0
 10
6.284019989902263
 20
2.514248497764445
 30
0.0
 10
6.284597186258075
 20
2.486662237049397
 30
0.0
 10
6.285854920128829
 20
2.459247502699491
 30
0.0
 10
6.287788012404055
 20
2.432129295147109
 30
0.0
 10
6.29038884507188
 20
2.405430989521989
 30
0.0
 10
6.293646736176969
 20
2.379272144157479
 30
0.0
 10
6.297551168531635
 20
2.353774559550761
 30
0.0
 10
6.302080532462754
 20
2.329036745701228
 30
0.0
 10
6.307245761313068
 20
2.305225889268654
 30
0.0
 10
6.312309717425445
 20
2.284735935794234
 30
0.0
 10
6.315886799557457
 20
2.272720906477176
 30
0.0
 10
6.317328308533891
 20
2.267879034813773
 30
0.0
  0
SPLINE
  5
16F
330
1F
100
AcDbEntity
  8
0
  6
Continuous
 62
     7
370
    25
100
AcDbSpline
210
0.0
220
0.0
230
1.0
 70
     8
 71
     3
 72
    17
 73
    13
 74
     0
 42
0.000000001
 43
0.00000001
 40
0.0
 40
0.0
 40
0.0
 40
0.0
 40
0.0563266964067253
 40
0.1635566861641601
 40
0.270704546327684
 40
0.3777683011019524
 40
0.4847636931546414
 40
0.5917046046602215
 40
0.6986033305435492
 40
0.8054707026705951
 40
0.9123171639712732
 40
1.0
 40
1.0
 40
1.0
 40
1.0
 10
6.337176149249941
 20
2.731462372792826
 30
0.0
 10
6.338224254357899
 20
2.736166878322889
 30
0.0
 10
6.34126765312163
 20
2.749827422676171
 30
0.0
 10
6.345851506392493
 20
2.773177790502849
 30
0.0
 10
6.350709330007053
 20
2.801710738059095
 30
0.0
 10
6.35492580200655
 20
2.83099280772736
 30
0.0
 10
6.358498437828055
 20
2.860902270989942
 30
0.0
 10
6.361412726039251
 20
2.891339298175852
 30
0.0
 10
6.363664520875412
 20
2.922195727993719
 30
0.0
 10
6.36523163258351
 20
2.953363004723969
 30
0.0
 10
6.366109695648603
 20
2.982857745619655
 30
0.0
 10
6.366208998592867
 20
3.001944580212548
 30
0.0
 10
6.366253758759582
 20
3.010547848773593
 30
0.0
  0
SPLINE
  5
170
330
1F
100
AcDbEntity
  8
0
  6
Continuous
 62
     7
370
    25
100
AcDbSpline
210
0.0
220
0.0
230
1.0
 70
     8
 71
     3
 72
    17
 73
    13
 74
     0
 42
0.000000001
 43
0.00000001
 40
0.0
 40
0.0
 40
0.0
 40
0.0
 40
0.0562975839419387
 40
0.1633813978111854
 40
0.2704676881051676
 40
0.377533854853158
 40
0.4845702251676713
 40
0.5915658535147957
 40
0.6985090981315812
 40
0.8053867282911724
 40
0.9121837963759393
 40
1.0
 40
1.0
 40
1.0
 40
1.0
 10
6.334757698854753
 20
3.010547848773593
 30
0.0
 10
6.334739135356084
 20
3.005150146130225
 30
0.0
 10
6.334685262167423
 20
2.989485456083275
 30
0.0
 10
6.33408631851999
 20
2.963587955285933
 30
0.0
 10
6.332743839606116
 20
2.933008546090555
 30
0.0
 10
6.330732945014057
 20
2.902725922985761
 30
0.0
 10
6.328073889873879
 20
2.872858783344593
 30
0.0
 10
6.324774071484716
 20
2.84352438890112
 30
0.0
 10
6.320851814043979
 20
2.814830669695018
 30
0.0
 10
6.316311842349027
 20
2.786912739122468
 30
0.0
 10
6.311519851090258
 20
2.761392144103303
 30
0.0
 10
6.308037046230023
 20
2.745584953573096
 30
0.0
 10
6.30646548485549
 20
2.738452205379017
 30
0.0
  0
LINE
  5
171
330
1F
100
AcDbEntity
  8
0
  6
Continuous
 62
     7
370
    25
100
AcDbLine
 10
6.3347576989
 20
3.128658031
 30
0.0
 11
6.3347576989
 21
3.0105478488
 31
0.0
  0
LINE
  5
172
330
1F
100
AcDbEntity
  8
0
  6
Continuous
 62
     7
370
    25
100
AcDbLine
 10
6.3662537588
 20
3.0105478488
 30
0.0
 11
6.3662537588
 21
3.128658031
 31
0.0
  0
LINE
  5
173
330
1F
100
AcDbEntity
  8
0
  6
Continuous
 62
     7
370
    25
100
AcDbLine
 10
7.0629759522
 20
2.244256991
 30
0.0
 11
7.0629759522
 21
2.2678790348
 31
0.0
  0
LINE
  5
174
330
1F
100
AcDbEntity
  8
0
  6
Continuous
 62
     7
370
    25
100
AcDbLine
 10
5.7666443009
 20
2.2678790348
 30
0.0
 11
5.7666443009
 21
2.244256991
 31
0.0
  0
LINE
  5
175
330
1F
100
AcDbEntity
  8
0
  6
Continuous
 62
     7
370
    25
100
AcDbLine
 10
6.1002432038
 20
0.679696335
 30
0.0
 11
6.1002432038
 21
1.7463215632
 31
0.0
  0
LINE
  5
176
330
1F
100
AcDbEntity
  8
0
  6
Continuous
 62
     7
370
    25
100
AcDbLine
 10
6.0490620784
 20
1.7463215632
 30
0.0
 11
6.0490620784
 21
0.679696335
 31
0.0
  0
SPLINE
  5
177
330
1F
100
AcDbEntity
  8
0
  6
Continuous
 62
     7
370
    25
100
AcDbSpline
210
0.0
220
0.0
230
1.0
 70
     8
 71
     3
 72
    27
 73
    23
 74
     0
 42
0.000000001
 43
0.00000001
 40
0.0
 40
0.0
 40
0.0
 40
0.0
 40
0.0405968789084044
 40
0.1066097110934254
 40
0.1717342550494994
 40
0.2283181434003808
 40
0.2775717859147624
 40
0.3269029804204101
 40
0.3845577632758939
 40
0.4530114649790196
 40
0.5136530215136097
 40
0.5638415866432365
 40
0.6131068787716941
 40
0.6416839173681683
 40
0.6755952297268357
 40
0.7130464423721492
 40
0.7440629217492811
 40
0.7902354148814456
 40
0.8373158959715291
 40
0.8969129584977017
 40
0.9592467685837521
 40
1.0
 40
1.0
 40
1.0
 40
1.0
 10
6.641622684757583
 20
2.267879034813773
 30
0.0
 10
6.641340103602734
 20
2.271518308757536
 30
0.0
 10
6.640598029431297
 20
2.281075248950151
 30
0.0
 10
6.63662902330995
 20
2.296219432222049
 30
0.0
 10
6.63013940495072
 20
2.312375668232045
 30
0.0
 10
6.622619624704473
 20
2.326708765651058
 30
0.0
 10
6.614767298379634
 20
2.339598365912436
 30
0.0
 10
6.606017575139174
 20
2.352541500756886
 30
0.0
 10
6.595402239767176
 20
2.366954955731059
 30
0.0
 10
6.583727990425438
 20
2.382260687481819
 30
0.0
 10
6.572878054726502
 20
2.397031325922632
 30
0.0
 10
6.564164788468027
 20
2.410053878362639
 30
0.0
 10
6.558222644172735
 20
2.42033351806892
 30
0.0
 10
6.55402401774517
 20
2.429103483618021
 30
0.0
 10
6.551068399750711
 20
2.436656570257689
 30
0.0
 10
6.548997739151336
 20
2.444053354546529
 30
0.0
 10
6.547701097599817
 20
2.452024106546578
 30
0.0
 10
6.547539924386883
 20
2.460323003223615
 30
0.0
 10
6.549096264431435
 20
2.470806896745057
 30
0.0
 10
6.553286126564706
 20
2.483390614551463
 30
0.0
 10
6.559799776600946
 20
2.496318819620289
 30
0.0
 10
6.56522459473271
 20
2.504690028105173
 30
0.0
 10
6.567369179207082
 20
2.507999404256108
 30
0.0
  0
SPLINE
  5
178
330
1F
100
AcDbEntity
  8
0
  6
Continuous
 62
     7
370
    25
100
AcDbSpline
210
0.0
220
0.0
230
1.0
 70
     8
 71
     3
 72
    37
 73
    33
 74
     0
 42
0.000000001
 43
0.00000001
 40
0.0
 40
0.0
 40
0.0
 40
0.0
 40
0.0395937960510553
 40
0.0757318886888559
 40
0.109833535020548
 40
0.149572639125657
 40
0.1839242171857115
 40
0.2195332793820997
 40
0.2492569206038584
 40
0.2856626540146561
 40
0.3192284440169778
 40
0.3571485415275693
 40
0.400596694353088
 40
0.4458903803794469
 40
0.486333506677263
 40
0.5191425227966928
 40
0.5524949144503613
 40
0.5809474689919177
 40
0.6142837295063268
 40
0.6460597344218336
 40
0.6869899760791783
 40
0.7200283452124783
 40
0.7373136153321741
 40
0.7582619607781328
 40
0.7841114003068229
 40
0.8093177074560429
 40
0.8350450814532464
 40
0.8569307518375392
 40
0.8786299879859324
 40
0.9191170202085662
 40
0.9635214300980124
 40
1.0
 40
1.0
 40
1.0
 40
1.0
 10
6.601669001305944
 20
2.555128653148336
 30
0.0
 10
6.604979467752066
 20
2.559733386210489
 30
0.0
 10
6.61131146673702
 20
2.568540956246339
 30
0.0
 10
6.619516938194857
 20
2.581460000935006
 30
0.0
 10
6.626832254260004
 20
2.59445994416503
 30
0.0
 10
6.63287052124551
 20
2.607410169562023
 30
0.0
 10
6.637624690799013
 20
2.620880037131709
 30
0.0
 10
6.640498085585221
 20
2.633345010415169
 30
0.0
 10
6.642039609965551
 20
2.64617960341092
 30
0.0
 10
6.642173774285443
 20
2.658811371846986
 30
0.0
 10
6.640743374102846
 20
2.672462681328545
 30
0.0
 10
6.637545371613145
 20
2.686829364271052
 30
0.0
 10
6.631897392477498
 20
2.702356045721943
 30
0.0
 10
6.624203988167348
 20
2.717722201835244
 30
0.0
 10
6.615824672370805
 20
2.731626466593103
 30
0.0
 10
6.607453902774784
 20
2.744099711270374
 30
0.0
 10
6.599501926721476
 20
2.755136585777576
 30
0.0
 10
6.591224429564749
 20
2.766153873385951
 30
0.0
 10
6.58300634307815
 20
2.777018717177788
 30
0.0
 10
6.573922625135157
 20
2.789338543253383
 30
0.0
 10
6.565559216190317
 20
2.801542866058702
 30
0.0
 10
6.559412256421002
 20
2.811877801068221
 30
0.0
 10
6.555366947905391
 20
2.819853839574603
 30
0.0
 10
6.552341699919917
 20
2.826834717547806
 30
0.0
 10
6.549830259464659
 20
2.834351620140137
 30
0.0
 10
6.548180494142456
 20
2.842024123788353
 30
0.0
 10
6.547566131582148
 20
2.849014743358316
 30
0.0
 10
6.547806779965871
 20
2.855580364738062
 30
0.0
 10
6.549012190507104
 20
2.863731783639618
 30
0.0
 10
6.552343910033247
 20
2.874793280906065
 30
0.0
 10
6.558805027290988
 20
2.888328201119532
 30
0.0
 10
6.564707251044591
 20
2.897599644588644
 30
0.0
 10
6.567369179207082
 20
2.901781105256295
 30
0.0
  0
SPLINE
  5
179
330
1F
100
AcDbEntity
  8
0
  6
Continuous
 62
     7
370
    25
100
AcDbSpline
210
0.0
220
0.0
230
1.0
 70
     8
 71
     3
 72
    15
 73
    11
 74
     0
 42
0.000000001
 43
0.00000001
 40
0.0
 40
0.0
 40
0.0
 40
0.0
 40
0.1200621036075918
 40
0.2523483678174674
 40
0.3766964815299844
 40
0.5170276944684548
 40
0.6936997169997103
 40
0.8639388935912358
 40
0.92940602727671
 40
1.0
 40
1.0
 40
1.0
 40
1.0
 10
6.601661283061772
 20
2.948863421357362
 30
0.0
 10
6.604433634437847
 20
2.952679457789986
 30
0.0
 10
6.610260605011807
 20
2.960700061597261
 30
0.0
 10
6.618079398906453
 20
2.972807179496272
 30
0.0
 10
6.625480852422849
 20
2.985617532815343
 30
0.0
 10
6.632479386631812
 20
3.000012213415957
 30
0.0
 10
6.638379415748896
 20
3.01638860596533
 30
0.0
 10
6.641063009842449
 20
3.030568101482213
 30
0.0
 10
6.641982884405653
 20
3.041160991344914
 30
0.0
 10
6.641994164499197
 20
3.045856948180183
 30
0.0
 10
6.642000017065275
 20
3.048293399400438
 30
0.0
  0
SPLINE
  5
17A
330
1F
100
AcDbEntity
  8
0
  6
Continuous
 62
     7
370
    25
100
AcDbSpline
210
0.0
220
0.0
230
1.0
 70
     8
 71
     3
 72
    15
 73
    11
 74
     0
 42
0.000000001
 43
0.00000001
 40
0.0
 40
0.0
 40
0.0
 40
0.0
 40
0.0702503597404775
 40
0.1705929351642587
 40
0.2971424454204056
 40
0.4887315709220652
 40
0.6521255179339902
 40
0.791454449064129
 40
0.988902227148289
 40
1.0
 40
1.0
 40
1.0
 40
1.0
 10
6.586916650059698
 20
3.048279759558006
 30
0.0
 10
6.586960344586643
 20
3.04715704273619
 30
0.0
 10
6.587066450486028
 20
3.044430685765215
 30
0.0
 10
6.586594437256015
 20
3.03973372195162
 30
0.0
 10
6.585420473087043
 20
3.032926639973596
 30
0.0
 10
6.582896112979536
 20
3.024770187671421
 30
0.0
 10
6.579040982300316
 20
3.01589855213927
 30
0.0
 10
6.574069863984254
 20
3.006619704695737
 30
0.0
 10
6.570256481564
 20
3.000134091939102
 30
0.0
 10
6.567515064022331
 20
2.996173234689479
 30
0.0
 10
6.567369179207082
 20
2.99596245726528
 30
0.0
  0
SPLINE
  5
17B
330
1F
100
AcDbEntity
  8
0
  6
Continuous
 62
     7
370
    25
100
AcDbSpline
210
0.0
220
0.0
230
1.0
 70
     8
 71
     3
 72
    37
 73
    33
 74
     0
 42
0.000000001
 43
0.00000001
 40
0.0
 40
0.0
 40
0.0
 40
0.0
 40
0.0265750737362185
 40
0.0589313620513052
 40
0.0975660565672172
 40
0.1408566834619761
 40
0.1840015959466923
 40
0.2219589870242103
 40
0.2544590900077068
 40
0.2886478208569878
 40
0.3164331429038099
 40
0.3506774182249629
 40
0.3860765669330683
 40
0.4146608828861847
 40
0.4377245862963742
 40
0.4596402814863517
 40
0.4936252706647684
 40
0.536476039498727
 40
0.5845325130734081
 40
0.6273145380972608
 40
0.6593486270574658
 40
0.6925253429619508
 40
0.7352029872090107
 40
0.7770553349196286
 40
0.8118904038571911
 40
0.843789975930462
 40
0.869497708196492
 40
0.902745694427339
 40
0.9328669188592666
 40
0.9670502078950044
 40
0.9999595870772974
 40
1.0
 40
1.0
 40
1.0
 40
1.0
 10
6.533077084518953
 20
2.948863421357362
 30
0.0
 10
6.530829096746805
 20
2.945772326394767
 30
0.0
 10
6.525844087764241
 20
2.938917691175926
 30
0.0
 10
6.518194976178745
 20
2.927498399631443
 30
0.0
 10
6.510183461099386
 20
2.914055055198095
 30
0.0
 10
6.502934499355701
 20
2.899133890867767
 30
0.0
 10
6.497408546605461
 20
2.883967407941964
 30
0.0
 10
6.494043769800188
 20
2.869823180668235
 30
0.0
 10
6.49247350453937
 20
2.856533793853544
 30
0.0
 10
6.492538785862206
 20
2.844497543330206
 30
0.0
 10
6.493929909931891
 20
2.832339089543138
 30
0.0
 10
6.496572360203448
 20
2.820173920400458
 30
0.0
 10
6.500511659124665
 20
2.808096239589644
 30
0.0
 10
6.504943390937478
 20
2.797571896255632
 30
0.0
 10
6.509276234066534
 20
2.788809029935471
 30
0.0
 10
6.51449503764896
 20
2.779457625844216
 30
0.0
 10
6.521803107238467
 20
2.767833604020227
 30
0.0
 10
6.532000239755346
 20
2.753278782971623
 30
0.0
 10
6.543569911660777
 20
2.737803711748588
 30
0.0
 10
6.554384495785686
 20
2.723474679774166
 30
0.0
 10
6.563390749970542
 20
2.711009800732371
 30
0.0
 10
6.571626483883607
 20
2.698634631994452
 30
0.0
 10
6.579198586599862
 20
2.685192915020039
 30
0.0
 10
6.584367332053844
 20
2.67231240222937
 30
0.0
 10
6.586748814231181
 20
2.661465708359706
 30
0.0
 10
6.587222644888581
 20
2.652696048733084
 30
0.0
 10
6.586427602224024
 20
2.64394029177558
 30
0.0
 10
6.584290321731012
 20
2.634992959865735
 30
0.0
 10
6.58026605557659
 20
2.624583868962752
 30
0.0
 10
6.574502686625894
 20
2.613615689282986
 30
0.0
 10
6.570015819626074
 20
2.606041740141179
 30
0.0
 10
6.567372421335302
 20
2.602235071237963
 30
0.0
 10
6.567369179207082
 20
2.602230402358244
 30
0.0
  0
SPLINE
  5
17C
330
1F
100
AcDbEntity
  8
0
  6
Continuous
 62
     7
370
    25
100
AcDbSpline
210
0.0
220
0.0
230
1.0
 70
     8
 71
     3
 72
    28
 73
    24
 74
     0
 42
0.000000001
 43
0.00000001
 40
0.0
 40
0.0
 40
0.0
 40
0.0
 40
0.0348311879444755
 40
0.0747026543765752
 40
0.1224592240888354
 40
0.1756588597429536
 40
0.2293187590719472
 40
0.2765508059316207
 40
0.3162454393197061
 40
0.3558717127036564
 40
0.4070282533930705
 40
0.4509605897150129
 40
0.4918422792946632
 40
0.5260715015329055
 40
0.5833834106416484
 40
0.6406381881365956
 40
0.7117513145353588
 40
0.7684117505746334
 40
0.8146310077180238
 40
0.855026570962888
 40
0.9000940769139999
 40
0.952846091031154
 40
1.0
 40
1.0
 40
1.0
 40
1.0
 10
6.533069357108221
 20
2.555128653148336
 30
0.0
 10
6.530687409344477
 20
2.551842971316132
 30
0.0
 10
6.52557883191606
 20
2.544796150096776
 30
0.0
 10
6.517814203681612
 20
2.533184274448616
 30
0.0
 10
6.509825587254302
 20
2.519737684235883
 30
0.0
 10
6.502646929321122
 20
2.504752473276668
 30
0.0
 10
6.497213856323194
 20
2.48950239578359
 30
0.0
 10
6.493948002227524
 20
2.475309893637809
 30
0.0
 10
6.492482915963812
 20
2.462277716965552
 30
0.0
 10
6.492548398128711
 20
2.448802990691272
 30
0.0
 10
6.494466289354852
 20
2.435011045401628
 30
0.0
 10
6.498097820350814
 20
2.421323865739802
 30
0.0
 10
6.502467204487895
 20
2.409534522306794
 30
0.0
 10
6.508361434643327
 20
2.396650564207191
 30
0.0
 10
6.516345613556703
 20
2.382380161944155
 30
0.0
 10
6.528197610905472
 20
2.364753407721206
 30
0.0
 10
6.541117807770536
 20
2.347396277163048
 30
0.0
 10
6.553533283467334
 20
2.330939861965314
 30
0.0
 10
6.563278444678442
 20
2.317491190118153
 30
0.0
 10
6.571402517338283
 20
2.305238530041922
 30
0.0
 10
6.578611708216451
 20
2.292510730890466
 30
0.0
 10
6.584192050445457
 20
2.279682485632086
 30
0.0
 10
6.585666815556512
 20
2.271663745007086
 30
0.0
 10
6.586362879790233
 20
2.267879034813773
 30
0.0
  0
SPLINE
  5
17D
330
1F
100
AcDbEntity
  8
0
  6
Continuous
 62
     7
370
    25
100
AcDbSpline
210
0.0
220
0.0
230
1.0
 70
     8
 71
     3
 72
    12
 73
     8
 74
     0
 42
0.000000001
 43
0.00000001
 40
0.0
 40
0.0
 40
0.0
 40
0.0
 40
0.172185964939034
 40
0.3989610392253021
 40
0.6078312186064418
 40
0.8819243681033799
 40
1.0
 40
1.0
 40
1.0
 40
1.0
 10
6.548336218244138
 20
2.267879034813773
 30
0.0
 10
6.548700737175114
 20
2.270134591081121
 30
0.0
 10
6.549545340575691
 20
2.275360795625558
 30
0.0
 10
6.552392045819291
 20
2.283833198467552
 30
0.0
 10
6.557076188182701
 20
2.294197012015237
 30
0.0
 10
6.562144229049464
 20
2.303296377030194
 30
0.0
 10
6.566160073775607
 20
2.309301513351285
 30
0.0
 10
6.567369179207082
 20
2.3111095620777
 30
0.0
  0
SPLINE
  5
17E
330
1F
100
AcDbEntity
  8
0
  6
Continuous
 62
     7
370
    25
100
AcDbSpline
210
0.0
220
0.0
230
1.0
 70
     8
 71
     3
 72
    36
 73
    32
 74
     0
 42
0.000000001
 43
0.00000001
 40
0.0
 40
0.0
 40
0.0
 40
0.0
 40
0.0221884245005876
 40
0.0686500201004179
 40
0.1151579677990878
 40
0.1429345892604198
 40
0.1761096182342763
 40
0.2117602102813715
 40
0.2532731516548571
 40
0.2854294179339018
 40
0.3176411561808168
 40
0.3559694207652012
 40
0.3995138139430688
 40
0.4426847167138946
 40
0.4814386255803113
 40
0.5137938522173562
 40
0.5468761685785648
 40
0.5887237449612391
 40
0.635997026817175
 40
0.677525170707759
 40
0.699885341131134
 40
0.7213708405218975
 40
0.7446992794938377
 40
0.7748429005715584
 40
0.8081156083529061
 40
0.8338424569012374
 40
0.8657657479112428
 40
0.9006267221980537
 40
0.9425101922683771
 40
0.9852195694910878
 40
1.0
 40
1.0
 40
1.0
 40
1.0
 10
6.60161185696608
 20
2.358373962741976
 30
0.0
 10
6.6035182884865
 20
2.360945807298079
 30
0.0
 10
6.609416704671633
 20
2.368902982466914
 30
0.0
 10
6.618364009273114
 20
2.382382112402128
 30
0.0
 10
6.626381230897408
 20
2.396650273204367
 30
0.0
 10
6.632270056903081
 20
2.409534597920204
 30
0.0
 10
6.63664088640387
 20
2.421323842266152
 30
0.0
 10
6.640271982820225
 20
2.435011050612901
 30
0.0
 10
6.642189982331125
 20
2.448802990680725
 30
0.0
 10
6.642255427711248
 20
2.46227771579139
 30
0.0
 10
6.640790399916185
 20
2.475309898314302
 30
0.0
 10
6.637524369393931
 20
2.489502375243476
 30
0.0
 10
6.632092035005648
 20
2.504752561515966
 30
0.0
 10
6.624910678996041
 20
2.519737379197606
 30
0.0
 10
6.616930595512642
 20
2.533185207105967
 30
0.0
 10
6.608763227865323
 20
2.54535615100256
 30
0.0
 10
6.599774998216644
 20
2.557837642069738
 30
0.0
 10
6.589165432419192
 20
2.571988181258843
 30
0.0
 10
6.577695416267408
 20
2.587226953602672
 30
0.0
 10
6.56866444067086
 20
2.600077066164851
 30
0.0
 10
6.56252632444807
 20
2.60979292855673
 30
0.0
 10
6.558195170822886
 20
2.617368287278796
 30
0.0
 10
6.554038830591505
 20
2.625744835657483
 30
0.0
 10
6.550443009544714
 20
2.63499266524562
 30
0.0
 10
6.548311949037932
 20
2.643940361935855
 30
0.0
 10
6.547514963541627
 20
2.652696002031128
 30
0.0
 10
6.547991793843679
 20
2.661465854188777
 30
0.0
 10
6.550361457702619
 20
2.672311781811759
 30
0.0
 10
6.555583630532261
 20
2.685195757854573
 30
0.0
 10
6.561807676746816
 20
2.696524796750405
 30
0.0
 10
6.566231762164599
 20
2.703120479962137
 30
0.0
 10
6.567369179207082
 20
2.704816207278271
 30
0.0
  0
SPLINE
  5
17F
330
1F
100
AcDbEntity
  8
0
  6
Continuous
 62
     7
370
    25
100
AcDbSpline
210
0.0
220
0.0
230
1.0
 70
     8
 71
     3
 72
    33
 73
    29
 74
     0
 42
0.000000001
 43
0.00000001
 40
0.0
 40
0.0
 40
0.0
 40
0.0
 40
0.0064353489038395
 40
0.0573320600327311
 40
0.097698270691204
 40
0.1370571748148268
 40
0.1850556636581401
 40
0.2271015779302421
 40
0.2677757679353858
 40
0.3007782382898664
 40
0.3413864589825516
 40
0.3799889845728264
 40
0.4250734928020466
 40
0.4763195639030263
 40
0.5277386997155615
 40
0.5736276981003405
 40
0.6120593920187903
 40
0.6525240158033048
 40
0.7046070151014568
 40
0.7600439294000654
 40
0.8065929473557805
 40
0.8452092843483532
 40
0.8724589028912277
 40
0.9044150876398449
 40
0.9418856157856043
 40
0.9666358535284549
 40
0.9862606080850738
 40
0.9999999999999999
 40
0.9999999999999999
 40
0.9999999999999999
 40
0.9999999999999999
 10
6.601676022891497
 20
2.752015488694811
 30
0.0
 10
6.602139752667635
 20
2.752643970659598
 30
0.0
 10
6.606271087854241
 20
2.758243071232547
 30
0.0
 10
6.612917122485388
 20
2.767834728953094
 30
0.0
 10
6.621080392635788
 20
2.780779355259241
 30
0.0
 10
6.627997941684872
 20
2.793523689402178
 30
0.0
 10
6.633749953851559
 20
2.806639015092528
 30
0.0
 10
6.638166617993781
 20
2.820174679043618
 30
0.0
 10
6.640808314777354
 20
2.832338933207478
 30
0.0
 10
6.642199630040205
 20
2.844497591513553
 30
0.0
 10
6.642264829080757
 20
2.856533779197206
 30
0.0
 10
6.640694629486516
 20
2.869823190413438
 30
0.0
 10
6.637329640191076
 20
2.883967379987354
 30
0.0
 10
6.631804588901431
 20
2.899134004301374
 30
0.0
 10
6.624552302965226
 20
2.914054648329352
 30
0.0
 10
6.616551370196062
 20
2.927499656398118
 30
0.0
 10
6.60828174917343
 20
2.939790694005679
 30
0.0
 10
6.599004027244291
 20
2.952628714466514
 30
0.0
 10
6.588134895352297
 20
2.96705409930115
 30
0.0
 10
6.576763095233999
 20
2.982199188873461
 30
0.0
 10
6.567247056599742
 20
2.995858329169637
 30
0.0
 10
6.560622490353194
 20
3.006627221085346
 30
0.0
 10
6.555709871467745
 20
3.015896509429158
 30
0.0
 10
6.551837934944722
 20
3.024770892463897
 30
0.0
 10
6.549318665208251
 20
3.032926510564247
 30
0.0
 10
6.548143802723779
 20
3.039733744637158
 30
0.0
 10
6.547671925459911
 20
3.044430682295664
 30
0.0
 10
6.547778018942569
 20
3.047157041757397
 30
0.0
 10
6.547821708354467
 20
3.048279759558006
 30
0.0
  0
SPLINE
  5
180
330
1F
100
AcDbEntity
  8
0
  6
Continuous
 62
     7
370
    25
100
AcDbSpline
210
0.0
220
0.0
230
1.0
 70
     8
 71
     3
 72
    32
 73
    28
 74
     0
 42
0.000000001
 43
0.00000001
 40
0.0
 40
0.0
 40
0.0
 40
0.0
 40
0.0264046317217961
 40
0.0508916459564887
 40
0.0912301395119021
 40
0.138236807073751
 40
0.1807025085172188
 40
0.2331912989316575
 40
0.279701889015303
 40
0.3291815959861754
 40
0.3894847024341803
 40
0.4347376293553213
 40
0.477375666668055
 40
0.5116393760041149
 40
0.5572936847986799
 40
0.6092758412693099
 40
0.669986569222815
 40
0.7253413589837623
 40
0.7550090460311559
 40
0.7849316328766648
 40
0.8201066844571961
 40
0.8545693173786872
 40
0.8899112534795575
 40
0.9185523163594406
 40
0.9421851189551894
 40
0.9873559406345874
 40
1.0
 40
1.0
 40
1.0
 40
1.0
 10
6.49273834134889
 20
3.048293399400438
 30
0.0
 10
6.492744027114753
 20
3.045857026918433
 30
0.0
 10
6.492754985721803
 20
3.04116122176278
 30
0.0
 10
6.493490240751393
 20
3.032724768933119
 30
0.0
 10
6.495140336340371
 20
3.022437044731839
 30
0.0
 10
6.49838379989033
 20
3.010629182688437
 30
0.0
 10
6.503258640454789
 20
2.997954496513927
 30
0.0
 10
6.509260800029678
 20
2.985617618416101
 30
0.0
 10
6.516648651510809
 20
2.972805598732678
 30
0.0
 10
6.525377129748999
 20
2.959384550975861
 30
0.0
 10
6.534874564237311
 20
2.946196103649059
 30
0.0
 10
6.544323632221325
 20
2.933657934250194
 30
0.0
 10
6.552169958119151
 20
2.923275899483111
 30
0.0
 10
6.559813286428245
 20
2.912885017921279
 30
0.0
 10
6.567563749918532
 20
2.901762346250551
 30
0.0
 10
6.575781373275332
 20
2.888507017798099
 30
0.0
 10
6.582412846965438
 20
2.874791468464628
 30
0.0
 10
6.585723822733229
 20
2.863732017437293
 30
0.0
 10
6.586932042401285
 20
2.855580316921651
 30
0.0
 10
6.587172128962784
 20
2.849014764825236
 30
0.0
 10
6.586557725568364
 20
2.842024090430732
 30
0.0
 10
6.584908738800475
 20
2.834351730606832
 30
0.0
 10
6.58239436395138
 20
2.826834330965413
 30
0.0
 10
6.57937773858718
 20
2.819854893256211
 30
0.0
 10
6.57529966869255
 20
2.811873411388548
 30
0.0
 10
6.571452126322835
 20
2.805154047418168
 30
0.0
 10
6.568101875801963
 20
2.800276558919397
 30
0.0
 10
6.567369179207082
 20
2.799209856834776
 30
0.0
  0
SPLINE
  5
181
330
1F
100
AcDbEntity
  8
0
  6
Continuous
 62
     7
370
    25
100
AcDbSpline
210
0.0
220
0.0
230
1.0
 70
     8
 71
     3
 72
    37
 73
    33
 74
     0
 42
0.000000001
 43
0.00000001
 40
0.0
 40
0.0
 40
0.0
 40
0.0
 40
0.0228613496720538
 40
0.0556834100985576
 40
0.096142595502468
 40
0.1414542980721823
 40
0.1849197251446699
 40
0.2228549030770632
 40
0.2564340363540007
 40
0.2928542438704296
 40
0.3225897049027162
 40
0.3582129246568994
 40
0.3925781603204328
 40
0.4323330559763525
 40
0.4664482701335877
 40
0.502600719836752
 40
0.5474426607622302
 40
0.5966471145800069
 40
0.6374181620973257
 40
0.6706598795431544
 40
0.7067924338485393
 40
0.7509095843353585
 40
0.7930897921605665
 40
0.816035908329335
 40
0.836907484278355
 40
0.8591140593738061
 40
0.8810661716520161
 40
0.9075725146277289
 40
0.9315734600056423
 40
0.951799052221419
 40
0.9866668824879753
 40
1.0
 40
1.0
 40
1.0
 40
1.0
 10
6.533066442141894
 20
2.752021208628734
 30
0.0
 10
6.531134681212753
 20
2.749359493572278
 30
0.0
 10
6.526429489368312
 20
2.742876351798924
 30
0.0
 10
6.518925432043618
 20
2.731624464293344
 30
0.0
 10
6.510530512324342
 20
2.717722857629433
 30
0.0
 10
6.502842015571119
 20
2.702355870244481
 30
0.0
 10
6.497192764380606
 20
2.686829403141686
 30
0.0
 10
6.493995029484533
 20
2.672462674124156
 30
0.0
 10
6.492564584441512
 20
2.65881137336433
 30
0.0
 10
6.492698754825649
 20
2.646179603921279
 30
0.0
 10
6.494240251064144
 20
2.633345005870052
 30
0.0
 10
6.497113833905355
 20
2.620880061090625
 30
0.0
 10
6.501867244638257
 20
2.607410078968132
 30
0.0
 10
6.507908595481942
 20
2.594460322967349
 30
0.0
 10
6.51521341337894
 20
2.581458773596971
 30
0.0
 10
6.523852998752948
 20
2.567931176265108
 30
0.0
 10
6.534604895394653
 20
2.552774814777716
 30
0.0
 10
6.546446373515551
 20
2.537191333920973
 30
0.0
 10
6.557206122032572
 20
2.522865167710644
 30
0.0
 10
6.566165409325729
 20
2.510155165892602
 30
0.0
 10
6.574429521075774
 20
2.497148660569672
 30
0.0
 10
6.5814787875634
 20
2.483385223945342
 30
0.0
 10
6.585277143611471
 20
2.471905394607411
 30
0.0
 10
6.586756558469667
 20
2.463454097453492
 30
0.0
 10
6.587166459493208
 20
2.457181897131422
 30
0.0
 10
6.586869529488512
 20
2.450994736242929
 30
0.0
 10
6.585741140045107
 20
2.444053604699281
 30
0.0
 10
6.583668090326593
 20
2.436656255868447
 30
0.0
 10
6.580720061816282
 20
2.429104320454726
 30
0.0
 10
6.576492771923217
 20
2.420330178582322
 30
0.0
 10
6.57214336996556
 20
2.412587684709835
 30
0.0
 10
6.56840364436239
 20
2.407040678219348
 30
0.0
 10
6.567369179207082
 20
2.405506291598625
 30
0.0
  0
SPLINE
  5
182
330
1F
100
AcDbEntity
  8
0
  6
Continuous
 62
     7
370
    25
100
AcDbSpline
210
0.0
220
0.0
230
1.0
 70
     8
 71
     3
 72
    14
 73
    10
 74
     0
 42
0.000000001
 43
0.00000001
 40
0.0
 40
0.0
 40
0.0
 40
0.0
 40
0.0749723298618022
 40
0.2145632589340338
 40
0.3539348741306786
 40
0.5140486633846958
 40
0.6983296571374826
 40
0.8851242137902979
 40
1.0
 40
1.0
 40
1.0
 40
1.0
 10
6.533126510614646
 20
2.358373962741976
 30
0.0
 10
6.531520876774277
 20
2.356197092589915
 30
0.0
 10
6.526925714397982
 20
2.349967109408608
 30
0.0
 10
6.519987645156334
 20
2.339596067391599
 30
0.0
 10
6.512113587209205
 20
2.326709480042988
 30
0.0
 10
6.50460065959355
 20
2.312375433738615
 30
0.0
 10
6.49810883837125
 20
2.29621950082835
 30
0.0
 10
6.494140399700078
 20
2.28107523918304
 30
0.0
 10
6.49339827431394
 20
2.271518306063946
 30
0.0
 10
6.493115673656582
 20
2.267879034813773
 30
0.0
  0
ARC
  5
183
330
1F
100
AcDbEntity
  8
0
  6
Continuous
 62
     7
370
    25
100
AcDbCircle
 10
6.4148101266
 20
1.7856916411
 30
0.0
 40
0.4724409448818904
100
AcDbArc
 50
184.7801918472
 51
219.2704593246
  0
ARC
  5
184
330
1F
100
AcDbEntity
  8
0
  6
Continuous
 62
     7
370
    25
100
AcDbCircle
 10
6.4148101266
 20
1.7856916411
 30
0.0
 40
0.4724409448818903
100
AcDbArc
 50
228.2537117491
 51
355.2198081528
  0
LINE
  5
185
330
1F
100
AcDbEntity
  8
0
  6
Continuous
 62
     7
370
    25
100
AcDbLine
 10
5.7587702985
 20
2.244256991
 30
0.0
 11
5.7681996096
 21
2.064335735
 31
0.0
  0
LINE
  5
186
330
1F
100
AcDbEntity
  8
0
  6
Continuous
 62
     7
370
    25
100
AcDbLine
 10
7.0614206435
 20
2.064335735
 30
0.0
 11
7.0708499546
 21
2.244256991
 31
0.0
  0
LINE
  5
187
330
1F
100
AcDbEntity
  8
0
  6
Continuous
 62
     7
370
    25
100
AcDbLine
 10
5.7681996096
 20
2.064335735
 30
0.0
 11
5.795403102
 21
1.9891835731
 31
0.0
  0
LINE
  5
188
330
1F
100
AcDbEntity
  8
0
  6
Continuous
 62
     7
370
    25
100
AcDbLine
 10
7.0342860837
 20
1.9893740267
 30
0.0
 11
7.0614206435
 21
2.064335735
 31
0.0
  0
LINE
  5
189
330
1F
100
AcDbEntity
  8
0
  6
Continuous
 62
     7
370
    25
100
AcDbLine
 10
6.4200865067
 20
3.128658031
 30
0.0
 11
6.4195499057
 21
3.128658031
 31
0.0
  0
LINE
  5
18A
330
1F
100
AcDbEntity
  8
0
  6
Continuous
 62
     7
370
    25
100
AcDbLine
 10
6.4510459699
 20
3.128658031
 30
0.0
 11
6.4200865067
 21
3.128658031
 31
0.0
  0
LINE
  5
18B
330
1F
100
AcDbEntity
  8
0
  6
Continuous
 62
     7
370
    25
100
AcDbLine
 10
6.3064652007
 20
2.7384508854
 30
0.0
 11
6.3063871658
 21
2.7379776709
 31
0.0
  0
LINE
  5
18C
330
1F
100
AcDbEntity
  8
0
  6
Continuous
 62
     7
370
    25
100
AcDbLine
 10
6.3347576989
 20
3.128658031
 30
0.0
 11
6.3662537588
 21
3.128658031
 31
0.0
  0
LINE
  5
18D
330
1F
100
AcDbEntity
  8
0
  6
Continuous
 62
     7
370
    25
100
AcDbLine
 10
5.7666443009
 20
2.2678790348
 30
0.0
 11
7.0629759522
 21
2.2678790348
 31
0.0
  0
LINE
  5
18E
330
1F
100
AcDbEntity
  8
0
  6
Continuous
 62
     7
370
    25
100
AcDbLine
 10
6.0490620784
 20
0.679696335
 30
0.0
 11
6.1002432038
 21
0.679696335
 31
0.0
  0
SPLINE
  5
18F
330
1F
100
AcDbEntity
  8
0
  6
Continuous
 62
     7
370
    25
100
AcDbSpline
210
0.0
220
0.0
230
1.0
 70
    24
 71
     3
 72
    11
 73
     7
 74
     0
 42
0.000000001
 43
0.00000001
 40
0.0
 40
0.0
 40
0.0
 40
0.0
 40
0.1908458503393586
 40
0.3810341479538777
 40
0.643779334942504
 40
1.0
 40
1.0
 40
1.0
 40
1.0
 10
6.607005681322828
 20
3.048310559202206
 30
0.0
 10
6.604513624318684
 20
3.048310559202206
 30
0.0
 10
6.599538096605935
 20
3.048310559202206
 30
0.0
 10
6.593227342518423
 20
3.048310559202206
 30
0.0
 10
6.588049157341561
 20
3.048310559202206
 30
0.0
 10
6.58743589058646
 20
3.048310559202206
 30
0.0
 10
6.587082949805255
 20
3.048310559202206
 30
0.0
  0
SPLINE
  5
190
330
1F
100
AcDbEntity
  8
0
  6
Continuous
 62
     7
370
    25
100
AcDbSpline
210
0.0
220
0.0
230
1.0
 70
    24
 71
     3
 72
    13
 73
     9
 74
     0
 42
0.000000001
 43
0.00000001
 40
0.0
 40
0.0
 40
0.0
 40
0.0
 40
0.1385471324690718
 40
0.3762237178593025
 40
0.6035479785207514
 40
0.7668021698015817
 40
0.9308877871639406
 40
1.0
 40
1.0
 40
1.0
 40
1.0
 10
6.641533714118713
 20
3.048310559202206
 30
0.0
 10
6.641579027370494
 20
3.048310559202206
 30
0.0
 10
6.641702075171985
 20
3.048310559202206
 30
0.0
 10
6.63714004861284
 20
3.048310559202206
 30
0.0
 10
6.629307814625498
 20
3.048310559202206
 30
0.0
 10
6.620018827620166
 20
3.048310559202206
 30
0.0
 10
6.612494895216599
 20
3.048310559202206
 30
0.0
 10
6.608260590736756
 20
3.048310559202206
 30
0.0
 10
6.607005681322828
 20
3.048310559202206
 30
0.0
  0
SPLINE
  5
191
330
1F
100
AcDbEntity
  8
0
  6
Continuous
 62
     7
370
    25
100
AcDbSpline
210
0.0
220
0.0
230
1.0
 70
    24
 71
     3
 72
    19
 73
    15
 74
     0
 42
0.000000001
 43
0.00000001
 40
0.0
 40
0.0
 40
0.0
 40
0.0
 40
0.0040136124024095
 40
0.1640129109731228
 40
0.2719167905356604
 40
0.3592389900851186
 40
0.4025322273499796
 40
0.4785872609106974
 40
0.5546450652361821
 40
0.6347166540765888
 40
0.7250267365498818
 40
0.8291940686152135
 40
0.9481496541422066
 40
1.0
 40
1.0
 40
1.0
 40
1.0
 10
6.547655408608909
 20
3.048310559202206
 30
0.0
 10
6.547674943258915
 20
3.048310559202206
 30
0.0
 10
6.548473210378654
 20
3.048310559202207
 30
0.0
 10
6.546034891025712
 20
3.048310559202206
 30
0.0
 10
6.540990496966803
 20
3.048310559202206
 30
0.0
 10
6.535266609970947
 20
3.048310559202206
 30
0.0
 10
6.529351931362978
 20
3.048310559202206
 30
0.0
 10
6.523051969106652
 20
3.048310559202206
 30
0.0
 10
6.51542526421511
 20
3.048310559202206
 30
0.0
 10
6.507996914758475
 20
3.048310559202206
 30
0.0
 10
6.501094607340482
 20
3.048310559202206
 30
0.0
 10
6.495654920424937
 20
3.048310559202206
 30
0.0
 10
6.492652755251226
 20
3.048310559202206
 30
0.0
 10
6.493076124955362
 20
3.048310559202206
 30
0.0
 10
6.493204644295452
 20
3.048310559202206
 30
0.0
  0
LINE
  5
192
330
1F
100
AcDbEntity
  8
0
  6
Continuous
 62
     7
370
    25
100
AcDbLine
 10
7.0614206435
 20
2.064335735
 30
0.0
 11
5.7681996096
 21
2.064335735
 31
0.0
  0
LINE
  5
193
330
1F
100
AcDbEntity
  8
0
  6
Continuous
 62
     7
370
    25
100
AcDbLine
 10
6.4148101266
 20
2.244256991
 30
0.0
 11
5.7587702985
 21
2.244256991
 31
0.0
  0
LINE
  5
194
330
1F
100
AcDbEntity
  8
0
  6
Continuous
 62
     7
370
    25
100
AcDbLine
 10
7.0708499546
 20
2.244256991
 30
0.0
 11
6.4148101266
 21
2.244256991
 31
0.0
  0
LINE
  5
195
330
1F
100
AcDbEntity
  8
0
  6
Continuous
 62
     7
370
    25
100
AcDbLine
 10
5.8871447189
 20
1.7648312694
 30
0.0
 11
6.0283376945
 21
1.7648312694
 31
0.0
  0
SPLINE
  5
196
330
1F
100
AcDbEntity
  8
0
  6
Continuous
 62
     7
370
    25
100
AcDbSpline
210
0.0
220
0.0
230
1.0
 70
     8
 71
     3
 72
    10
 73
     6
 74
     0
 42
0.000000001
 43
0.00000001
 40
0.0
 40
0.0
 40
0.0
 40
0.0
 40
0.5
 40
0.5
 40
1.0
 40
1.0
 40
1.0
 40
1.0
 10
5.795076838653881
 20
1.994056792173901
 30
0.0
 10
5.809778300546726
 20
1.955399889724577
 30
0.0
 10
5.824718021621607
 20
1.91691066536229
 30
0.0
 10
5.855303277423044
 20
1.840428942438196
 30
0.0
 10
5.870943349092837
 20
1.8024325991771
 30
0.0
 10
5.887144702128416
 20
1.764831265186582
 30
0.0
  0
SPLINE
  5
197
330
1F
100
AcDbEntity
  8
0
  6
Continuous
 62
     7
370
    25
100
AcDbSpline
210
0.0
220
0.0
230
1.0
 70
     8
 71
     3
 72
     9
 73
     5
 74
     0
 42
0.000000001
 43
0.00000001
 40
0.0
 40
0.0
 40
0.0
 40
0.0
 40
0.2119363899011118
 40
1.0
 40
1.0
 40
1.0
 40
1.0
 10
5.795513247419338
 20
1.989223433867053
 30
0.0
 10
5.795548756851753
 20
1.989029548284692
 30
0.0
 10
5.795716304446725
 20
1.988114719158598
 30
0.0
 10
5.795358678102174
 20
1.991437907768629
 30
0.0
 10
5.79507684579402
 20
1.99405679178169
 30
0.0
  0
SPLINE
  5
198
330
1F
100
AcDbEntity
  8
0
  6
Continuous
 62
     7
370
    25
100
AcDbSpline
210
0.0
220
0.0
230
1.0
 70
     8
 71
     3
 72
    10
 73
     6
 74
     0
 42
0.000000001
 43
0.00000001
 40
0.0
 40
0.0
 40
0.0
 40
0.0
 40
0.5000000000000001
 40
0.5000000000000001
 40
1.0
 40
1.0
 40
1.0
 40
1.0
 10
6.942475551036138
 20
1.764831265186581
 30
0.0
 10
6.958764681573711
 20
1.802636319888701
 30
0.0
 10
6.974486509055518
 20
1.840840478574729
 30
0.0
 10
7.005229525985035
 20
1.917741702564939
 30
0.0
 10
7.020245130232388
 20
1.956442697119441
 30
0.0
 10
7.035020843620417
 20
1.995312457550817
 30
0.0
  0
LINE
  5
199
330
1F
100
AcDbEntity
  8
0
  6
Continuous
 62
     7
370
    25
100
AcDbLine
 10
6.5207551002
 20
1.7648312694
 30
0.0
 11
6.9424755343
 21
1.7648312694
 31
0.0
  0
SPLINE
  5
19A
330
1F
100
AcDbEntity
  8
0
  6
Continuous
 62
     7
370
    25
100
AcDbSpline
210
0.0
220
0.0
230
1.0
 70
     8
 71
     3
 72
    10
 73
     6
 74
     0
 42
0.000000001
 43
0.00000001
 40
0.0
 40
0.0
 40
0.0
 40
0.0
 40
0.4999999999999999
 40
0.4999999999999999
 40
1.0
 40
1.0
 40
1.0
 40
1.0
 10
6.457048770095841
 20
1.994056792173899
 30
0.0
 10
6.466967304117921
 20
1.955399889724576
 30
0.0
 10
6.47714484373846
 20
1.916910665362289
 30
0.0
 10
6.498267195349443
 20
1.840428942438195
 30
0.0
 10
6.509206068587498
 20
1.802432599177099
 30
0.0
 10
6.520755096761898
 20
1.764831265186581
 30
0.0
  0
SPLINE
  5
19B
330
1F
100
AcDbEntity
  8
0
  6
Continuous
 62
     7
370
    25
100
AcDbSpline
210
0.0
220
0.0
230
1.0
 70
     8
 71
     3
 72
    12
 73
     8
 74
     0
 42
0.000000001
 43
0.00000001
 40
0.0
 40
0.0
 40
0.0
 40
0.0
 40
0.5
 40
0.5
 40
0.75
 40
0.75
 40
1.0
 40
1.0
 40
1.0
 40
1.0
 10
6.372893551646593
 20
1.995312457550988
 30
0.0
 10
6.386594177345014
 20
1.991220130226946
 30
0.0
 10
6.400529436488538
 20
1.988937842172193
 30
0.0
 10
6.421830247260722
 20
1.988584111209561
 30
0.0
 10
6.429020521576535
 20
1.988987968615968
 30
0.0
 10
6.443150246398455
 20
1.990796764285686
 30
0.0
 10
6.450136130941202
 20
1.992196900310088
 30
0.0
 10
6.457048770095844
 20
1.994056792173873
 30
0.0
  0
SPLINE
  5
19C
330
1F
100
AcDbEntity
  8
0
  6
Continuous
 62
     7
370
    25
100
AcDbSpline
210
0.0
220
0.0
230
1.0
 70
     8
 71
     3
 72
    10
 73
     6
 74
     0
 42
0.000000001
 43
0.00000001
 40
0.0
 40
0.0
 40
0.0
 40
0.0
 40
0.5000000000000001
 40
0.5000000000000001
 40
1.0
 40
1.0
 40
1.0
 40
1.0
 10
6.308865156402655
 20
1.764831265186581
 30
0.0
 10
6.320476756193227
 20
1.802636319888701
 30
0.0
 10
6.331471672728199
 20
1.840840478574728
 30
0.0
 10
6.352699881584286
 20
1.917741702564939
 30
0.0
 10
6.362927102548118
 20
1.956442697119441
 30
0.0
 10
6.372893551646521
 20
1.995312457550816
 30
0.0
  0
LINE
  5
19D
330
1F
100
AcDbEntity
  8
0
  6
Continuous
 62
     7
370
    25
100
AcDbLine
 10
6.1142599019
 20
1.7648312694
 30
0.0
 11
6.308865153
 21
1.7648312694
 31
0.0
  0
LINE
  5
19E
330
1F
100
AcDbEntity
  8
0
  6
Continuous
 62
     7
370
    25
100
AcDbLine
 10
6.1005194473
 20
1.820640518
 30
0.0
 11
6.1142599019
 21
1.7648312694
 31
0.0
  0
SPLINE
  5
19F
330
1F
100
AcDbEntity
  8
0
  6
Continuous
 62
     7
370
    25
100
AcDbSpline
210
0.0
220
0.0
230
1.0
 70
     8
 71
     3
 72
     8
 73
     4
 74
     0
 42
0.000000001
 43
0.00000001
 40
0.0
 40
0.0
 40
0.0
 40
0.0
 40
1.0
 40
1.0
 40
1.0
 40
1.0
 10
6.061545177109843
 20
1.895953332287305
 30
0.0
 10
6.0742838194201
 20
1.870715574020198
 30
0.0
 10
6.087251892885829
 20
1.845598969871608
 30
0.0
 10
6.100519444095196
 20
1.82064050885738
 30
0.0
  0
SPLINE
  5
1A0
330
1F
100
AcDbEntity
  8
0
  6
Continuous
 62
     7
370
    25
100
AcDbSpline
210
0.0
220
0.0
230
1.0
 70
     8
 71
     3
 72
     8
 73
     4
 74
     0
 42
0.000000001
 43
0.00000001
 40
0.0
 40
0.0
 40
0.0
 40
0.0
 40
1.0
 40
1.0
 40
1.0
 40
1.0
 10
6.030959690385573
 20
1.895953332286766
 30
0.0
 10
6.041154852627037
 20
1.894734756454311
 30
0.0
 10
6.051350014868501
 20
1.894734756454305
 30
0.0
 10
6.061545177109965
 20
1.89595333228675
 30
0.0
  0
SPLINE
  5
1A1
330
1F
100
AcDbEntity
  8
0
  6
Continuous
 62
     7
370
    25
100
AcDbSpline
210
0.0
220
0.0
230
1.0
 70
     8
 71
     3
 72
     8
 73
     4
 74
     0
 42
0.000000001
 43
0.00000001
 40
0.0
 40
0.0
 40
0.0
 40
0.0
 40
1.0
 40
1.0
 40
1.0
 40
1.0
 10
6.028337695425361
 20
1.82064050885738
 30
0.0
 10
6.029230270324041
 20
1.845598969871655
 30
0.0
 10
6.030102697848684
 20
1.87071557402005
 30
0.0
 10
6.030959690385573
 20
1.89595333228677
 30
0.0
  0
LINE
  5
1A2
330
1F
100
AcDbEntity
  8
0
  6
Continuous
 62
     7
370
    25
100
AcDbLine
 10
6.4570487678
 20
1.9940567918
 30
0.0
 11
6.4570487678
 21
1.7853937169
 31
0.0
  0
LINE
  5
1A3
330
1F
100
AcDbEntity
  8
0
  6
Continuous
 62
     7
370
    25
100
AcDbLine
 10
6.3728935525
 20
1.7853937169
 30
0.0
 11
6.4570487678
 21
1.7853937169
 31
0.0
  0
LINE
  5
1A4
330
1F
100
AcDbEntity
  8
0
  6
Continuous
 62
     7
370
    25
100
AcDbLine
 10
6.3728935525
 20
1.7853937169
 30
0.0
 11
6.3728935525
 21
1.9953124594
 31
0.0
  0
LINE
  5
1A5
330
1F
100
AcDbEntity
  8
0
  6
Continuous
 62
     7
370
    25
100
AcDbLine
 10
6.3277942293
 20
1.7463215632
 30
0.0
 11
6.3728935525
 21
1.7853937169
 31
0.0
  0
LINE
  5
1A6
330
1F
100
AcDbEntity
  8
0
  6
Continuous
 62
     7
370
    25
100
AcDbLine
 10
6.3277942293
 20
1.7463215632
 30
0.0
 11
6.2563167342
 21
1.7463215632
 31
0.0
  0
SPLINE
  5
1A7
330
1F
100
AcDbEntity
  8
0
  6
Continuous
 62
     7
370
    25
100
AcDbSpline
210
0.0
220
0.0
230
1.0
 70
     8
 71
     3
 72
     8
 73
     4
 74
     0
 42
0.000000001
 43
0.00000001
 40
0.0
 40
0.0
 40
0.0
 40
0.0
 40
1.0
 40
1.0
 40
1.0
 40
1.0
 10
6.256316740235854
 20
1.746321562360054
 30
0.0
 10
6.273985804324117
 20
1.751842223517992
 30
0.0
 10
6.291488646090946
 20
1.758068576262152
 30
0.0
 10
6.308865156402655
 20
1.764831265186581
 30
0.0
  0
SPLINE
  5
1A8
330
1F
100
AcDbEntity
  8
0
  6
Continuous
 62
     7
370
    25
100
AcDbSpline
210
0.0
220
0.0
230
1.0
 70
     8
 71
     3
 72
     8
 73
     4
 74
     0
 42
0.000000001
 43
0.00000001
 40
0.0
 40
0.0
 40
0.0
 40
0.0
 40
1.0
 40
1.0
 40
1.0
 40
1.0
 10
6.520755096761898
 20
1.764831265186581
 30
0.0
 10
6.538131607073607
 20
1.758068576262152
 30
0.0
 10
6.555634448840436
 20
1.751842223517992
 30
0.0
 10
6.5733035129287
 20
1.746321562360054
 30
0.0
  0
LINE
  5
1A9
330
1F
100
AcDbEntity
  8
0
  6
Continuous
 62
     7
370
    25
100
AcDbLine
 10
6.573303519
 20
1.7463215632
 30
0.0
 11
6.5024946145
 21
1.7463215632
 31
0.0
  0
LINE
  5
1AA
330
1F
100
AcDbEntity
  8
0
  6
Continuous
 62
     7
370
    25
100
AcDbLine
 10
6.4570487678
 20
1.7853937169
 30
0.0
 11
6.5024946145
 21
1.7463215632
 31
0.0
  0
LINE
  5
1AB
330
1F
100
AcDbEntity
  8
0
  6
Continuous
 62
     7
370
    25
100
AcDbLine
 10
6.5024946145
 20
1.7463215632
 30
0.0
 11
6.3277942293
 21
1.7463215632
 31
0.0
  0
SPLINE
  5
1AC
330
1F
100
AcDbEntity
  8
0
  6
Continuous
 62
     7
370
    25
100
AcDbSpline
210
0.0
220
0.0
230
1.0
 70
     8
 71
     3
 72
     8
 73
     4
 74
     0
 42
0.000000001
 43
0.00000001
 40
0.0
 40
0.0
 40
0.0
 40
0.0
 40
1.0
 40
1.0
 40
1.0
 40
1.0
 10
6.887636972752889
 20
1.746321562360054
 30
0.0
 10
6.905989095297581
 20
1.751842223517992
 30
0.0
 10
6.924262309085613
 20
1.758068576262152
 30
0.0
 10
6.942475551036138
 20
1.764831265186581
 30
0.0
  0
LINE
  5
1AD
330
1F
100
AcDbEntity
  8
0
  6
Continuous
 62
     7
370
    25
100
AcDbLine
 10
6.8876369878
 20
1.7463215632
 30
0.0
 11
6.573303519
 21
1.7463215632
 31
0.0
  0
SPLINE
  5
1AE
330
1F
100
AcDbEntity
  8
0
  6
Continuous
 62
     7
370
    25
100
AcDbSpline
210
0.0
220
0.0
230
1.0
 70
     8
 71
     3
 72
     8
 73
     4
 74
     0
 42
0.000000001
 43
0.00000001
 40
0.0000004756239456
 40
0.0000004756239456
 40
0.0000004756239456
 40
0.0000004756239456
 40
0.001119330462681
 40
0.001119330462681
 40
0.001119330462681
 40
0.001119330462681
 10
6.114259903271088
 20
1.764831265186581
 30
0.0
 10
6.123228032405098
 20
1.758657005191328
 30
0.0
 10
6.132197413882526
 20
1.752486756641485
 30
0.0
 10
6.141168368997493
 20
1.746321562360054
 30
0.0
  0
LINE
  5
1AF
330
1F
100
AcDbEntity
  8
0
  6
Continuous
 62
     7
370
    25
100
AcDbLine
 10
6.2563167342
 20
1.7463215632
 30
0.0
 11
6.1411683777
 21
1.7463215632
 31
0.0
  0
LINE
  5
1B0
330
1F
100
AcDbEntity
  8
0
  6
Continuous
 62
     7
370
    25
100
AcDbLine
 10
6.1005194473
 20
1.820640518
 30
0.0
 11
6.1005194473
 21
1.7463215632
 31
0.0
  0
LINE
  5
1B1
330
1F
100
AcDbEntity
  8
0
  6
Continuous
 62
     7
370
    25
100
AcDbLine
 10
6.0615451742
 20
1.8959533297
 30
0.0
 11
6.0615451742
 21
1.7463215632
 31
0.0
  0
LINE
  5
1B2
330
1F
100
AcDbEntity
  8
0
  6
Continuous
 62
     7
370
    25
100
AcDbLine
 10
6.1005194473
 20
1.7463215632
 30
0.0
 11
6.0615451742
 21
1.7463215632
 31
0.0
  0
LINE
  5
1B3
330
1F
100
AcDbEntity
  8
0
  6
Continuous
 62
     7
370
    25
100
AcDbLine
 10
6.0309596975
 20
1.8959533297
 30
0.0
 11
6.0309596975
 21
1.7463215632
 31
0.0
  0
LINE
  5
1B4
330
1F
100
AcDbEntity
  8
0
  6
Continuous
 62
     7
370
    25
100
AcDbLine
 10
6.0615451742
 20
1.7463215632
 30
0.0
 11
6.0309596975
 21
1.7463215632
 31
0.0
  0
LINE
  5
1B5
330
1F
100
AcDbEntity
  8
0
  6
Continuous
 62
     7
370
    25
100
AcDbLine
 10
6.1411683777
 20
1.7463215632
 30
0.0
 11
6.1005194473
 21
1.7463215632
 31
0.0
  0
LINE
  5
1B6
330
1F
100
AcDbEntity
  8
0
  6
Continuous
 62
     7
370
    25
100
AcDbLine
 10
6.0283376945
 20
1.820640518
 30
0.0
 11
6.0283376945
 21
1.7463215632
 31
0.0
  0
LINE
  5
1B7
330
1F
100
AcDbEntity
  8
0
  6
Continuous
 62
     7
370
    25
100
AcDbLine
 10
6.0309596975
 20
1.7463215632
 30
0.0
 11
6.0283376945
 21
1.7463215632
 31
0.0
  0
SPLINE
  5
1B8
330
1F
100
AcDbEntity
  8
0
  6
Continuous
 62
     7
370
    25
100
AcDbSpline
210
0.0
220
0.0
230
1.0
 70
     8
 71
     3
 72
     8
 73
     4
 74
     0
 42
0.000000001
 43
0.00000001
 40
0.0
 40
0.0
 40
0.0
 40
0.0
 40
1.0
 40
1.0
 40
1.0
 40
1.0
 10
5.887144702128416
 20
1.764831265186581
 30
0.0
 10
5.905357944078941
 20
1.758068576262152
 30
0.0
 10
5.923631157866971
 20
1.751842223517992
 30
0.0
 10
5.941983280411662
 20
1.746321562360054
 30
0.0
  0
LINE
  5
1B9
330
1F
100
AcDbEntity
  8
0
  6
Continuous
 62
     7
370
    25
100
AcDbLine
 10
6.0283376945
 20
1.7463215632
 30
0.0
 11
5.9419832654
 21
1.7463215632
 31
0.0
  0
LINE
  5
1BA
330
1F
100
AcDbEntity
  8
0
  6
Continuous
 62
     7
370
    25
100
AcDbLine
 10
7.0090480852
 20
1.7853937169
 30
0.0
 11
7.0350208752
 21
1.9953124594
 31
0.0
  0
LINE
  5
1BB
330
1F
100
AcDbEntity
  8
0
  6
Continuous
 62
     7
370
    25
100
AcDbLine
 10
6.9591144554
 20
1.7463215632
 30
0.0
 11
7.0090480852
 21
1.7853937169
 31
0.0
  0
LINE
  5
1BC
330
1F
100
AcDbEntity
  8
0
  6
Continuous
 62
     7
370
    25
100
AcDbLine
 10
6.9591144554
 20
1.7463215632
 30
0.0
 11
6.8876369878
 21
1.7463215632
 31
0.0
  0
LINE
  5
1BD
330
1F
100
AcDbEntity
  8
0
  6
Continuous
 62
     7
370
    25
100
AcDbLine
 10
5.8208942442
 20
1.7853937169
 30
0.0
 11
5.87117437
 21
1.7463215632
 31
0.0
  0
LINE
  5
1BE
330
1F
100
AcDbEntity
  8
0
  6
Continuous
 62
     7
370
    25
100
AcDbLine
 10
5.7950768458
 20
1.9940567918
 30
0.0
 11
5.8208942442
 21
1.7853937169
 31
0.0
  0
LINE
  5
1BF
330
1F
100
AcDbEntity
  8
0
  6
Continuous
 62
     7
370
    25
100
AcDbLine
 10
5.9419832654
 20
1.7463215632
 30
0.0
 11
5.87117437
 21
1.7463215632
 31
0.0
  0
LINE
  5
1C0
330
1F
100
AcDbEntity
  8
0
  6
Continuous
 62
     7
370
    25
100
AcDbLine
 10
5.8705057978
 20
1.7463215632
 30
0.0
 11
5.8205721679
 21
1.7853937169
 31
0.0
  0
LINE
  5
1C1
330
1F
100
AcDbEntity
  8
0
  6
Continuous
 62
     7
370
    25
100
AcDbLine
 10
5.8205721679
 20
1.7853937169
 30
0.0
 11
5.8208942442
 21
1.7853937169
 31
0.0
  0
LINE
  5
1C2
330
1F
100
AcDbEntity
  8
0
  6
Continuous
 62
     7
370
    25
100
AcDbLine
 10
5.87117437
 20
1.7463215632
 30
0.0
 11
5.8705057978
 21
1.7463215632
 31
0.0
  0
LINE
  5
1C3
330
1F
100
AcDbEntity
  8
0
  6
Continuous
 62
     7
370
    25
100
AcDbLine
 10
5.8205721679
 20
1.7853937169
 30
0.0
 11
5.794599378
 21
1.9953124594
 31
0.0
  0
LINE
  5
1C4
330
1F
100
AcDbEntity
  8
0
  6
Continuous
 62
     8
370
    25
100
AcDbLine
 10
6.4119430913
 20
2.7379776709
 30
0.0
 11
6.4113496004
 21
2.7359816339
 31
0.0
  0
LWPOLYLINE
  5
1C5
330
1F
100
AcDbEntity
  8
0
  6
Continuous
 62
     8
370
    25
100
AcDbPolyline
 90
        9
 70
   128
 43
0.0
 10
6.4427785204
 20
2.7339261977
 10
6.4421908636
 20
2.7365600072
 10
6.4396183577
 20
2.7394594271
 10
6.435350352
 20
2.7417508473
 10
6.4299632685
 20
2.7431248047
 10
6.4241846594
 20
2.7433956216
 10
6.4187949603
 20
2.7425268516
 10
6.4145220788
 20
2.7406356802
 10
6.4119430913
 20
2.7379776709
  0
LINE
  5
1C6
330
1F
100
AcDbEntity
  8
0
  6
Continuous
 62
     8
370
    25
100
AcDbLine
 10
6.4200865067
 20
3.0105478488
 30
0.0
 11
6.4195499065
 21
3.0105478488
 31
0.0
  0
LINE
  5
1C7
330
1F
100
AcDbEntity
  8
0
  6
Continuous
 62
     8
370
    25
100
AcDbLine
 10
6.4510459676
 20
3.0105478488
 30
0.0
 11
6.4200865067
 21
3.0105478488
 31
0.0
  0
LWPOLYLINE
  5
1C8
330
1F
100
AcDbEntity
  8
0
  6
Continuous
 62
     8
370
    25
100
AcDbPolyline
 90
       10
 70
   128
 43
0.0
 10
6.3063871658
 20
2.7379776709
 10
6.3071314813
 20
2.7349117863
 10
6.3098596606
 20
2.7318519883
 10
6.3142032721
 20
2.7292115788
 10
6.3195756742
 20
2.7273471737
 10
6.3252512878
 20
2.7265105233
 10
6.3304636051
 20
2.7268147065
 10
6.3345086617
 20
2.7282185836
 10
6.3368401581
 20
2.7305325169
 10
6.3371768001
 20
2.7314652328
  0
LINE
  5
1C9
330
1F
100
AcDbEntity
  8
0
  6
Continuous
 62
     8
370
    25
100
AcDbLine
 10
6.3347576989
 20
3.0105478488
 30
0.0
 11
6.3662537588
 21
3.0105478488
 31
0.0
  0
DIMENSION
  5
1CA
330
1F
100
AcDbEntity
  8
ARAT
100
AcDbDimension
  2
_D_1
 10
4.8926285816
 20
0.6796963655
 30
0.0
 11
4.8926285816
 21
1.3992147807
 31
0.0
 70
   160
  1
<>
 71
     2
 42
-1.0
  3
SLDDIMSTYLE1
100
AcDbAlignedDimension
 13
5.7666443296
 23
2.2678790427
 33
0.0
 14
6.0490620951
 24
0.6796963655
 34
0.0
 50
90.0
100
AcDbRotatedDimension
  0
LINE
  5
1D6
330
1F
100
AcDbEntity
  8
0
  6
Continuous
 62
     7
370
    25
100
AcDbLine
 10
6.8103641997
 20
6.6019133161
 30
0.0
 11
6.8103641997
 21
6.6983551002
 31
0.0
  0
LINE
  5
1D7
330
1F
100
AcDbEntity
  8
0
  6
Continuous
 62
     7
370
    25
100
AcDbLine
 10
6.7788681387
 20
6.6983550983
 30
0.0
 11
6.7788681387
 21
6.6019133142
 31
0.0
  0
SPLINE
  5
1D8
330
1F
100
AcDbEntity
  8
0
  6
Continuous
 62
     7
370
    25
100
AcDbSpline
210
0.0
220
0.0
230
1.0
 70
     8
 71
     3
 72
    16
 73
    12
 74
     0
 42
0.000000001
 43
0.00000001
 40
0.0
 40
0.0
 40
0.0
 40
0.0
 40
0.068348804513449
 40
0.1981863442469201
 40
0.3279319408720028
 40
0.4575723366925377
 40
0.5871164503367067
 40
0.7165761608161642
 40
0.8459660279030587
 40
0.9684867241960503
 40
1.0
 40
1.0
 40
1.0
 40
1.0
 10
6.778868138668663
 20
6.601913314233126
 30
0.0
 10
6.778918405466798
 20
6.596321214205031
 30
0.0
 10
6.779064160656375
 20
6.580106185001219
 30
0.0
 10
6.780680542775669
 20
6.552408367911831
 30
0.0
 10
6.784289892144306
 20
6.518651146267581
 30
0.0
 10
6.78967723356443
 20
6.484130069667284
 30
0.0
 10
6.796777678332756
 20
6.449045741744563
 30
0.0
 10
6.805553333825727
 20
6.413571658465999
 30
0.0
 10
6.815784134844685
 20
6.378520781206846
 30
0.0
 10
6.824476279426732
 20
6.35243882251927
 30
0.0
 10
6.829596736847117
 20
6.338306379126974
 30
0.0
 10
6.830644313461121
 20
6.335415071577464
 30
0.0
  0
SPLINE
  5
1D9
330
1F
100
AcDbEntity
  8
0
  6
Continuous
 62
     7
370
    25
100
AcDbSpline
210
0.0
220
0.0
230
1.0
 70
     8
 71
     3
 72
    16
 73
    12
 74
     0
 42
0.000000001
 43
0.00000001
 40
0.0
 40
0.0
 40
0.0
 40
0.0
 40
0.0683028610255303
 40
0.1983897779727398
 40
0.3284444776414496
 40
0.458427593368613
 40
0.5883217849523308
 40
0.7181105773237357
 40
0.8477775590288996
 40
0.9704567430005214
 40
1.0
 40
1.0
 40
1.0
 40
1.0
 10
6.860224629958789
 20
6.346232070818851
 30
0.0
 10
6.858053983944978
 20
6.352283456718183
 30
0.0
 10
6.85174921172502
 20
6.369860071913661
 30
0.0
 10
6.8424492250386
 20
6.39902401903475
 30
0.0
 10
6.832891937139634
 20
6.43351689706618
 30
0.0
 10
6.824971480196496
 20
6.467665020052181
 30
0.0
 10
6.818705711359323
 20
6.501264011607176
 30
0.0
 10
6.814126868383701
 20
6.534123578929008
 30
0.0
 10
6.811318568046857
 20
6.565476599900309
 30
0.0
 10
6.810421633341801
 20
6.587865492652138
 30
0.0
 10
6.810373534681095
 20
6.599630055493503
 30
0.0
 10
6.810364199716517
 20
6.60191331610404
 30
0.0
  0
SPLINE
  5
1DA
330
1F
100
AcDbEntity
  8
0
  6
Continuous
 62
     7
370
    25
100
AcDbSpline
210
0.0
220
0.0
230
1.0
 70
     8
 71
     3
 72
    25
 73
    21
 74
     0
 42
0.000000001
 43
0.00000001
 40
0.0
 40
0.0
 40
0.0
 40
0.0
 40
0.031532838874991
 40
0.0916295403074835
 40
0.1517001697859978
 40
0.21171732192824
 40
0.2716675540643717
 40
0.3315375413175529
 40
0.3913154082718046
 40
0.450992739222325
 40
0.5105689615335407
 40
0.5700577378086898
 40
0.6294989374145035
 40
0.6889492264184378
 40
0.7485269019261432
 40
0.8084390004751817
 40
0.8689866103941218
 40
0.9305231126966282
 40
0.9932816169198337
 40
0.9999999999999999
 40
0.9999999999999999
 40
0.9999999999999999
 40
0.9999999999999999
 10
6.830644313461121
 20
6.335415071577464
 30
0.0
 10
6.832529193622549
 20
6.330145778207187
 30
0.0
 10
6.83800636310326
 20
6.31483402872666
 30
0.0
 10
6.84593783066755
 20
6.289430809048237
 30
0.0
 10
6.853861824479548
 20
6.25945399483524
 30
0.0
 10
6.860136801049284
 20
6.229906466137635
 30
0.0
 10
6.864746638989347
 20
6.201022206937322
 30
0.0
 10
6.867659877075999
 20
6.173023692451258
 30
0.0
 10
6.868869583707609
 20
6.146128570870093
 30
0.0
 10
6.868383715033108
 20
6.120545382298703
 30
0.0
 10
6.866228542176988
 20
6.096470987478778
 30
0.0
 10
6.862447978693071
 20
6.074086606294548
 30
0.0
 10
6.857103520496093
 20
6.053555459763413
 30
0.0
 10
6.85027102153764
 20
6.03501783631037
 30
0.0
 10
6.842037613372868
 20
6.018574911603261
 30
0.0
 10
6.832471366512569
 20
6.004314486813636
 30
0.0
 10
6.821658633147158
 20
5.992193079918123
 30
0.0
 10
6.80946317360117
 20
5.982522207439051
 30
0.0
 10
6.80034858491747
 20
5.976746295346946
 30
0.0
 10
6.794958404032498
 20
5.974855984276133
 30
0.0
 10
6.794437176017512
 20
5.974673192064113
 30
0.0
  0
SPLINE
  5
1DB
330
1F
100
AcDbEntity
  8
0
  6
Continuous
 62
     7
370
    25
100
AcDbSpline
210
0.0
220
0.0
230
1.0
 70
     8
 71
     3
 72
    24
 73
    20
 74
     0
 42
0.000000001
 43
0.00000001
 40
0.0
 40
0.0
 40
0.0
 40
0.0
 40
0.0468945222746213
 40
0.1045569617342198
 40
0.1625315185731401
 40
0.2211018753499165
 40
0.2803773027742278
 40
0.3402986738202988
 40
0.4007027523190114
 40
0.4614016734146599
 40
0.5222381583792651
 40
0.5830946320552894
 40
0.643906314935754
 40
0.7046511308050033
 40
0.7653241072257402
 40
0.8259293297845698
 40
0.8864755921358867
 40
0.9469736765097042
 40
1.0
 40
1.0
 40
1.0
 40
1.0
 10
6.814612605805822
 20
5.949519210664768
 30
0.0
 10
6.818967585977366
 20
5.951892287227466
 30
0.0
 10
6.828677536587009
 20
5.957183346040376
 30
0.0
 10
6.842157179405295
 20
5.968311008422031
 30
0.0
 10
6.855218137727681
 20
5.982219218214402
 30
0.0
 10
6.866733755370879
 20
5.998456453732543
 30
0.0
 10
6.876683482588142
 20
6.016865651159616
 30
0.0
 10
6.884975955131213
 20
6.037377046561914
 30
0.0
 10
6.891540669267557
 20
6.059846550859975
 30
0.0
 10
6.89632021396358
 20
6.084104385810978
 30
0.0
 10
6.89928132934832
 20
6.109956984079717
 30
0.0
 10
6.900412516830777
 20
6.137203297915794
 30
0.0
 10
6.899720060558007
 20
6.165641776261084
 30
0.0
 10
6.897224210155747
 20
6.195073792586486
 30
0.0
 10
6.892952374511122
 20
6.225300862447549
 30
0.0
 10
6.886953031636721
 20
6.256123622716987
 30
0.0
 10
6.879240406890241
 20
6.287333965353027
 30
0.0
 10
6.870378631832906
 20
6.317456991786941
 30
0.0
 10
6.863457455078915
 20
6.337070678150103
 30
0.0
 10
6.860224629958789
 20
6.346232070818851
 30
0.0
  0
LINE
  5
1DC
330
1F
100
AcDbEntity
  8
0
  6
Continuous
 62
     7
370
    25
100
AcDbLine
 10
6.2634912715
 20
6.9266507837
 30
0.0
 11
6.2634912715
 21
6.8302089996
 31
0.0
  0
LINE
  5
1DD
330
1F
100
AcDbEntity
  8
0
  6
Continuous
 62
     7
370
    25
100
AcDbLine
 10
6.2949873326
 20
6.8302090015
 30
0.0
 11
6.2949873326
 21
6.9266507856
 31
0.0
  0
SPLINE
  5
1DE
330
1F
100
AcDbEntity
  8
0
  6
Continuous
 62
     7
370
    25
100
AcDbSpline
210
0.0
220
0.0
230
1.0
 70
     8
 71
     3
 72
    16
 73
    12
 74
     0
 42
0.000000001
 43
0.00000001
 40
0.0
 40
0.0
 40
0.0
 40
0.0
 40
0.0682811594443925
 40
0.1946506347698602
 40
0.3210274511710705
 40
0.4474425092403371
 40
0.5739623219890294
 40
0.7006387130654921
 40
0.8275049198669425
 40
0.9545743538181025
 40
1.0
 40
1.0
 40
1.0
 40
1.0
 10
6.2175992006856
 20
6.613806774024133
 30
0.0
 10
6.220967400223417
 20
6.617776214888348
 30
0.0
 10
6.230569202293012
 20
6.62909198911052
 30
0.0
 10
6.244712090878671
 20
6.649102637350127
 30
0.0
 10
6.259236766358348
 20
6.674226709778617
 30
0.0
 10
6.27137163748709
 20
6.700826504811956
 30
0.0
 10
6.281088692765425
 20
6.728733034340163
 30
0.0
 10
6.288337020963911
 20
6.757811729098296
 30
0.0
 10
6.293045889837532
 20
6.787918860679636
 30
0.0
 10
6.294826401629093
 20
6.812229042101819
 30
0.0
 10
6.294953786476247
 20
6.826461073125293
 30
0.0
 10
6.294987332586613
 20
6.830209001502284
 30
0.0
  0
SPLINE
  5
1DF
330
1F
100
AcDbEntity
  8
0
  6
Continuous
 62
     7
370
    25
100
AcDbSpline
210
0.0
220
0.0
230
1.0
 70
     8
 71
     3
 72
    15
 73
    11
 74
     0
 42
0.000000001
 43
0.00000001
 40
0.0
 40
0.0
 40
0.0
 40
0.0
 40
0.0683256250536597
 40
0.2002143068081282
 40
0.3322618207580186
 40
0.4645657976348424
 40
0.5971482215100699
 40
0.7300080859272519
 40
0.8631119511594496
 40
1.0
 40
1.0
 40
1.0
 40
1.0
 10
6.263491271538761
 20
6.83020899963137
 30
0.0
 10
6.263423537684149
 20
6.825054081389826
 30
0.0
 10
6.26322505743991
 20
6.809948645009658
 30
0.0
 10
6.261002119182453
 20
6.785471020275074
 30
0.0
 10
6.255995664883827
 20
6.757211372098298
 30
0.0
 10
6.24849088853014
 20
6.730033470745981
 30
0.0
 10
6.238577674971061
 20
6.704055368829887
 30
0.0
 10
6.226237106390325
 20
6.679465110206141
 30
0.0
 10
6.211596914834242
 20
6.656028050986265
 30
0.0
 10
6.1998576577491
 20
6.641781401533722
 30
0.0
 10
6.193905760994186
 20
6.634558236896471
 30
0.0
  0
SPLINE
  5
1E0
330
1F
100
AcDbEntity
  8
0
  6
Continuous
 62
     7
370
    25
100
AcDbSpline
210
0.0
220
0.0
230
1.0
 70
     8
 71
     3
 72
     9
 73
     5
 74
     0
 42
0.000000001
 43
0.00000001
 40
0.0
 40
0.0
 40
0.0
 40
0.0
 40
0.3906903563962999
 40
1.0
 40
1.0
 40
1.0
 40
1.0
 10
6.22946890315128
 20
6.218250059934244
 30
0.0
 10
6.225346486201451
 20
6.214893525991621
 30
0.0
 10
6.214794864226817
 20
6.206302236527548
 30
0.0
 10
6.205962739447374
 20
6.196976180590562
 30
0.0
 10
6.200581240645747
 20
6.191293724771371
 30
0.0
  0
SPLINE
  5
1E1
330
1F
100
AcDbEntity
  8
0
  6
Continuous
 62
     7
370
    25
100
AcDbSpline
210
0.0
220
0.0
230
1.0
 70
     8
 71
     3
 72
     9
 73
     5
 74
     0
 42
0.000000001
 43
0.00000001
 40
0.0
 40
0.0
 40
0.0
 40
0.0
 40
0.2378096145996917
 40
1.0
 40
1.0
 40
1.0
 40
1.0
 10
6.22710071131094
 20
6.173437221073913
 30
0.0
 10
6.228721771832426
 20
6.175148906236587
 30
0.0
 10
6.235538403381214
 20
6.182346618429831
 30
0.0
 10
6.243561238085978
 20
6.189210407362768
 30
0.0
 10
6.249676165561604
 20
6.194441921294868
 30
0.0
  0
SPLINE
  5
1E2
330
1F
100
AcDbEntity
  8
0
  6
Continuous
 62
     7
370
    25
100
AcDbSpline
210
0.0
220
0.0
230
1.0
 70
     8
 71
     3
 72
    25
 73
    21
 74
     0
 42
0.000000001
 43
0.00000001
 40
0.0
 40
0.0
 40
0.0
 40
0.0
 40
0.0167955065938884
 40
0.0772947299660453
 40
0.1377810559961704
 40
0.1982540388393169
 40
0.2587152800462034
 40
0.3191692036191001
 40
0.3796211100256567
 40
0.4400823755568741
 40
0.5005700540198585
 40
0.561107503881794
 40
0.6217244060635876
 40
0.6824555354092273
 40
0.7433372996539592
 40
0.8044014668272801
 40
0.8656655507356935
 40
0.9271230293931562
 40
0.9855800825047202
 40
1.0
 40
1.0
 40
1.0
 40
1.0
 10
6.280792483497893
 20
6.207247532897352
 30
0.0
 10
6.278708136986791
 20
6.209360806076552
 30
0.0
 10
6.269115749890233
 20
6.219086316814661
 30
0.0
 10
6.253710434285696
 20
6.237644762656153
 30
0.0
 10
6.234821873504534
 20
6.262728404871468
 30
0.0
 10
6.218075308761233
 20
6.288713842119372
 30
0.0
 10
6.203430030453075
 20
6.315283537865273
 30
0.0
 10
6.191032322568598
 20
6.342270065728887
 30
0.0
 10
6.180956100397403
 20
6.369462514832905
 30
0.0
 10
6.173271344428571
 20
6.396661136713164
 30
0.0
 10
6.168025852828252
 20
6.423665893695059
 30
0.0
 10
6.165250672564927
 20
6.450282184227357
 30
0.0
 10
6.164959904175331
 20
6.47632167923997
 30
0.0
 10
6.167152658656189
 20
6.501603733151629
 30
0.0
 10
6.171814356660488
 20
6.52595601355153
 30
0.0
 10
6.178919898501776
 20
6.549211661638406
 30
0.0
 10
6.188425232208671
 20
6.571215000664068
 30
0.0
 10
6.20009422761958
 20
6.591438403695102
 30
0.0
 10
6.210298936390505
 20
6.605325005226381
 30
0.0
 10
6.216393324839191
 20
6.612405734320009
 30
0.0
 10
6.2175992006856
 20
6.613806774024133
 30
0.0
  0
SPLINE
  5
1E3
330
1F
100
AcDbEntity
  8
0
  6
Continuous
 62
     7
370
    25
100
AcDbSpline
210
0.0
220
0.0
230
1.0
 70
     8
 71
     3
 72
    25
 73
    21
 74
     0
 42
0.000000001
 43
0.00000001
 40
0.0
 40
0.0
 40
0.0
 40
0.0
 40
0.0318542797386465
 40
0.0903520363791256
 40
0.1488538409539633
 40
0.2073878292835716
 40
0.266001807723126
 40
0.3247304674788656
 40
0.3835919191864229
 40
0.4425881565159918
 40
0.5017085740825077
 40
0.5609341857082849
 40
0.6202428190946977
 40
0.679612294074315
 40
0.7390232398753117
 40
0.798460061232372
 40
0.8579112593161902
 40
0.9173681552900256
 40
0.9768259694553343
 40
1.0
 40
1.0
 40
1.0
 40
1.0
 10
6.193905760994186
 20
6.634558236896471
 30
0.0
 10
6.190918798950724
 20
6.631022224520415
 30
0.0
 10
6.182446527550201
 20
6.62099261715024
 30
0.0
 10
6.170194707006504
 20
6.603119272549379
 30
0.0
 10
6.157946701825898
 20
6.580586634710698
 30
0.0
 10
6.148115058352635
 20
6.556631411728921
 30
0.0
 10
6.140726934566757
 20
6.531444465008596
 30
0.0
 10
6.135841899771401
 20
6.505180028492624
 30
0.0
 10
6.133493125184374
 20
6.478012435010758
 30
0.0
 10
6.133701903556775
 20
6.450122218330105
 30
0.0
 10
6.136470896980636
 20
6.421699307028288
 30
0.0
 10
6.141784449297218
 20
6.392939792580976
 30
0.0
 10
6.14960725545692
 20
6.364043543562515
 30
0.0
 10
6.159885759776945
 20
6.335212369830067
 30
0.0
 10
6.172544984430359
 20
6.306644490686603
 30
0.0
 10
6.187505362223868
 20
6.278544499252702
 30
0.0
 10
6.204624577481291
 20
6.251077940381963
 30
0.0
 10
6.223920985396255
 20
6.224534363072158
 30
0.0
 10
6.240509132038468
 20
6.203965334293569
 30
0.0
 10
6.251221069294196
 20
6.192749794002124
 30
0.0
 10
6.254225222983711
 20
6.189604405269716
 30
0.0
  0
SPLINE
  5
1E4
330
1F
100
AcDbEntity
  8
0
  6
Continuous
 62
     7
370
    25
100
AcDbSpline
210
0.0
220
0.0
230
1.0
 70
     8
 71
     3
 72
    13
 73
     9
 74
     0
 42
0.000000001
 43
0.00000001
 40
0.0
 40
0.0
 40
0.0
 40
0.0
 40
0.1561922662261087
 40
0.3537827299071992
 40
0.5483855251402401
 40
0.7509239099029825
 40
0.9471921437115687
 40
1.0
 40
1.0
 40
1.0
 40
1.0
 10
6.200581240645747
 20
6.191293724771371
 30
0.0
 10
6.199223983073499
 20
6.189628153500296
 30
0.0
 10
6.196149731699221
 20
6.185855557293243
 30
0.0
 10
6.193335648497833
 20
6.178756229258147
 30
0.0
 10
6.192643659715066
 20
6.17047701486368
 30
0.0
 10
6.194753212285356
 20
6.162529161047257
 30
0.0
 10
6.197732068218797
 20
6.156962539352995
 30
0.0
 10
6.200271149196309
 20
6.154626588078559
 30
0.0
 10
6.200809472338098
 20
6.154131331471836
 30
0.0
  0
SPLINE
  5
1E5
330
1F
100
AcDbEntity
  8
0
  6
Continuous
 62
     7
370
    25
100
AcDbSpline
210
0.0
220
0.0
230
1.0
 70
     8
 71
     3
 72
    11
 73
     7
 74
     0
 42
0.000000001
 43
0.00000001
 40
0.0
 40
0.0
 40
0.0
 40
0.0
 40
0.2227861629202617
 40
0.5436091695368149
 40
0.8531359960226053
 40
1.0
 40
1.0
 40
1.0
 40
1.0
 10
6.230167441598733
 20
6.172378022522228
 30
0.0
 10
6.229301378472352
 20
6.172633169791491
 30
0.0
 10
6.227188141946671
 20
6.173255741648446
 30
0.0
 10
6.224875153749805
 20
6.174411981776194
 30
0.0
 10
6.22377880861475
 20
6.175390748505912
 30
0.0
 10
6.223882176550215
 20
6.175253709299879
 30
0.0
 10
6.22391543977084
 20
6.175209610853642
 30
0.0
  0
LINE
  5
1E6
330
1F
100
AcDbEntity
  8
0
  6
Continuous
 62
     7
370
    25
100
AcDbLine
 10
7.1985455415
 20
6.1004738264
 30
0.0
 11
7.1985455415
 21
6.1197621892
 31
0.0
  0
LINE
  5
1E7
330
1F
100
AcDbEntity
  8
0
  6
Continuous
 62
     7
370
    25
100
AcDbLine
 10
5.9022139522
 20
6.1197621892
 30
0.0
 11
5.9022139522
 21
6.1004738264
 31
0.0
  0
LINE
  5
1E8
330
1F
100
AcDbEntity
  8
0
  6
Continuous
 62
     7
370
    25
100
AcDbLine
 10
7.0507497199
 20
6.0693924238
 30
0.0
 11
7.0493748138
 21
6.0907993167
 31
0.0
  0
SPLINE
  5
1E9
330
1F
100
AcDbEntity
  8
0
  6
Continuous
 62
     7
370
    25
100
AcDbSpline
210
0.0
220
0.0
230
1.0
 70
     8
 71
     3
 72
    11
 73
     7
 74
     0
 42
0.000000001
 43
0.00000001
 40
0.0
 40
0.0
 40
0.0
 40
0.0
 40
0.0242663711104437
 40
0.3915880621659285
 40
0.7549746053993498
 40
0.9999999999999999
 40
0.9999999999999999
 40
0.9999999999999999
 40
0.9999999999999999
 10
6.700005150645775
 20
6.164991288356157
 30
0.0
 10
6.700246179384787
 20
6.164904662822206
 30
0.0
 10
6.704135676351859
 20
6.16350678075653
 30
0.0
 10
6.709984570436041
 20
6.159854365773838
 30
0.0
 10
6.716501753255459
 20
6.154965224008778
 30
0.0
 10
6.718732067676927
 20
6.151887908202245
 30
0.0
 10
6.719630280938733
 20
6.150648582553096
 30
0.0
  0
LINE
  5
1EA
330
1F
100
AcDbEntity
  8
0
  6
Continuous
 62
     7
370
    25
100
AcDbLine
 10
6.228625107
 20
6.2857263936
 30
0.0
 11
6.2275681624
 21
6.2746592767
 31
0.0
  0
LINE
  5
1EB
330
1F
100
AcDbEntity
  8
0
  6
Continuous
 62
     7
370
    25
100
AcDbLine
 10
6.2229541748
 20
6.2263464789
 30
0.0
 11
6.2215551091
 21
6.2116970498
 31
0.0
  0
LINE
  5
1EC
330
1F
100
AcDbEntity
  8
0
  6
Continuous
 62
     7
370
    25
100
AcDbLine
 10
6.6322047575
 20
4.5127754027
 30
0.0
 11
6.6322047575
 21
5.3600188161
 31
0.0
  0
LINE
  5
1ED
330
1F
100
AcDbEntity
  8
0
  6
Continuous
 62
     7
370
    25
100
AcDbLine
 10
6.5810236636
 20
5.3620467072
 30
0.0
 11
6.5810236636
 21
4.5127754027
 31
0.0
  0
SPLINE
  5
1EE
330
1F
100
AcDbEntity
  8
0
  6
Continuous
 62
     7
370
    25
100
AcDbSpline
210
0.0
220
0.0
230
1.0
 70
     8
 71
     3
 72
    28
 73
    24
 74
     0
 42
0.000000001
 43
0.00000001
 40
0.0
 40
0.0
 40
0.0
 40
0.0
 40
0.002749580966926
 40
0.0360699365117537
 40
0.0614588253635567
 40
0.1193601217240066
 40
0.1650464761156264
 40
0.20927448154008
 40
0.2638603028421713
 40
0.3078911467417682
 40
0.3523930244190464
 40
0.3890311631037598
 40
0.4165451430861523
 40
0.4648971978323734
 40
0.5253900512464974
 40
0.5849336649920555
 40
0.6669713297030595
 40
0.7465490137784524
 40
0.8257854539498268
 40
0.8980849145768375
 40
0.9329100825232536
 40
0.969237908869178
 40
1.0
 40
1.0
 40
1.0
 40
1.0
 10
6.671047538041699
 20
6.135352704386925
 30
0.0
 10
6.671263072212979
 20
6.135634613246284
 30
0.0
 10
6.67409052263823
 20
6.139332789361663
 30
0.0
 10
6.679152680257785
 20
6.144647297536641
 30
0.0
 10
6.68844589108014
 20
6.154303077101178
 30
0.0
 10
6.698249517790485
 20
6.163399005419933
 30
0.0
 10
6.70812294019942
 20
6.172419715858396
 30
0.0
 10
6.716998872826872
 20
6.180902320641533
 30
0.0
 10
6.725021930663695
 20
6.190174365091809
 30
0.0
 10
6.731035892142625
 20
6.201440851358076
 30
0.0
 10
6.733523889187791
 20
6.213904021411368
 30
0.0
 10
6.732282228170554
 20
6.224672407770086
 30
0.0
 10
6.728585157085056
 20
6.235021780860339
 30
0.0
 10
6.722405296653791
 20
6.244693490930499
 30
0.0
 10
6.712338082752313
 20
6.255146637856786
 30
0.0
 10
6.699248651749762
 20
6.267006046914558
 30
0.0
 10
6.681976537416737
 20
6.283060045827829
 30
0.0
 10
6.661935596878339
 20
6.306246718476556
 30
0.0
 10
6.646066920115626
 20
6.333701644110508
 30
0.0
 10
6.63925428096256
 20
6.35887749502338
 30
0.0
 10
6.638278583652841
 20
6.378611167130929
 30
0.0
 10
6.639394673436753
 20
6.392670949190062
 30
0.0
 10
6.641895900187898
 20
6.401577481394814
 30
0.0
 10
6.643042763504346
 20
6.405661307484436
 30
0.0
  0
SPLINE
  5
1EF
330
1F
100
AcDbEntity
  8
0
  6
Continuous
 62
     7
370
    25
100
AcDbSpline
210
0.0
220
0.0
230
1.0
 70
     8
 71
     3
 72
    28
 73
    24
 74
     0
 42
0.000000001
 43
0.00000001
 40
0.0
 40
0.0
 40
0.0
 40
0.0
 40
0.0111946740387986
 40
0.0561990152965951
 40
0.0959935426716173
 40
0.1405426031988705
 40
0.1812129020297756
 40
0.224350203120583
 40
0.2681128781303159
 40
0.3172226064162892
 40
0.3569186486695348
 40
0.3894879396927705
 40
0.4167130906892005
 40
0.4539976078943163
 40
0.5026586111043094
 40
0.5500201736838503
 40
0.6360476167277099
 40
0.7154503462660892
 40
0.7949774739308971
 40
0.8704641857377325
 40
0.9404788861404817
 40
0.9782650183379289
 40
1.0
 40
1.0
 40
1.0
 40
1.0
 10
6.671188697316254
 20
6.456761483609779
 30
0.0
 10
6.672064826269054
 20
6.457897323575195
 30
0.0
 10
6.676463130699315
 20
6.463599417925569
 30
0.0
 10
6.684415533446428
 20
6.471615356934389
 30
0.0
 10
6.694547783931228
 20
6.481494768738656
 30
0.0
 10
6.703382511174214
 20
6.48954732930097
 30
0.0
 10
6.711570203213634
 20
6.497169290807818
 30
0.0
 10
6.719036824767495
 20
6.504615384234716
 30
0.0
 10
6.726603606213922
 20
6.51406973676543
 30
0.0
 10
6.731791071594166
 20
6.524891850928767
 30
0.0
 10
6.733447576082273
 20
6.537030715171895
 30
0.0
 10
6.73204805013565
 20
6.546871722907654
 30
0.0
 10
6.72876885277949
 20
6.55574880978449
 30
0.0
 10
6.723888267080727
 20
6.563900552298149
 30
0.0
 10
6.716585597080447
 20
6.572434730182123
 30
0.0
 10
6.705111847186762
 20
6.583312917782774
 30
0.0
 10
6.689951848353022
 20
6.596810688805722
 30
0.0
 10
6.669459965167859
 20
6.618153493057814
 30
0.0
 10
6.651543438260103
 20
6.643950812767659
 30
0.0
 10
6.640079190264197
 20
6.673192407203417
 30
0.0
 10
6.637874092293039
 20
6.69856176873505
 30
0.0
 10
6.63976780277812
 20
6.716384700973545
 30
0.0
 10
6.642228459564346
 20
6.724199151568244
 30
0.0
 10
6.643127003402949
 20
6.727052709396073
 30
0.0
  0
SPLINE
  5
1F0
330
1F
100
AcDbEntity
  8
0
  6
Continuous
 62
     7
370
    25
100
AcDbSpline
210
0.0
220
0.0
230
1.0
 70
     8
 71
     3
 72
    14
 73
    10
 74
     0
 42
0.000000001
 43
0.00000001
 40
0.0
 40
0.0
 40
0.0
 40
0.0
 40
0.1072945675246072
 40
0.3011896173835503
 40
0.437917702178747
 40
0.5565929519132782
 40
0.6767990660709219
 40
0.8564125647151434
 40
1.0
 40
1.0
 40
1.0
 40
1.0
 10
6.671209614692684
 20
6.77818608037245
 30
0.0
 10
6.673157093087291
 20
6.78059660314541
 30
0.0
 10
6.678623914810575
 20
6.787363249849266
 30
0.0
 10
6.686793156916361
 20
6.795473477174395
 30
0.0
 10
6.694711166427568
 20
6.803057259331449
 30
0.0
 10
6.700907456062437
 20
6.808752790309852
 30
0.0
 10
6.707328973869106
 20
6.814716552631823
 30
0.0
 10
6.713958316419429
 20
6.820791657916565
 30
0.0
 10
6.717792202386891
 20
6.825309360503752
 30
0.0
 10
6.719495470525847
 20
6.827316425644277
 30
0.0
  0
SPLINE
  5
1F1
330
1F
100
AcDbEntity
  8
0
  6
Continuous
 62
     7
370
    25
100
AcDbSpline
210
0.0
220
0.0
230
1.0
 70
     8
 71
     3
 72
    12
 73
     8
 74
     0
 42
0.000000001
 43
0.00000001
 40
0.0
 40
0.0
 40
0.0
 40
0.0
 40
0.0398720794159971
 40
0.2889177028356048
 40
0.6113280354672624
 40
0.9040016480551287
 40
1.0
 40
1.0
 40
1.0
 40
1.0
 10
6.663736218597641
 20
6.849419065953173
 30
0.0
 10
6.663368149491104
 20
6.849082842495012
 30
0.0
 10
6.660701078139348
 20
6.846646528397681
 30
0.0
 10
6.654254245792266
 20
6.84070871894287
 30
0.0
 10
6.644783464260991
 20
6.831398406354953
 30
0.0
 10
6.636820468546917
 20
6.823030939632361
 30
0.0
 10
6.632559707157585
 20
6.818026392797631
 30
0.0
 10
6.631507338814275
 20
6.816790316383059
 30
0.0
  0
SPLINE
  5
1F2
330
1F
100
AcDbEntity
  8
0
  6
Continuous
 62
     7
370
    25
100
AcDbSpline
210
0.0
220
0.0
230
1.0
 70
     8
 71
     3
 72
    27
 73
    23
 74
     0
 42
0.000000001
 43
0.00000001
 40
0.0
 40
0.0
 40
0.0
 40
0.0
 40
0.0482635915435825
 40
0.1003292587360801
 40
0.1515409450034984
 40
0.2131621497512012
 40
0.2850367895697382
 40
0.3458052842727156
 40
0.3891896940940512
 40
0.4446116754874763
 40
0.5116805101930284
 40
0.5655477503334138
 40
0.6164399492621037
 40
0.6525940336936276
 40
0.6991850414517548
 40
0.7562730383343202
 40
0.8260569328228272
 40
0.8765880394575478
 40
0.9214621290539932
 40
0.9650747541143084
 40
0.98817279699284
 40
1.0
 40
1.0
 40
1.0
 40
1.0
 10
6.605146664230786
 20
6.777488930948377
 30
0.0
 10
6.602524451302305
 20
6.773084648069277
 30
0.0
 10
6.597073454578923
 20
6.763929124777457
 30
0.0
 10
6.591591474205787
 20
6.748527040643673
 30
0.0
 10
6.586734637881194
 20
6.731511223355978
 30
0.0
 10
6.58355470031907
 20
6.7118721153706
 30
0.0
 10
6.583199357078999
 20
6.690951713188612
 30
0.0
 10
6.585398657956164
 20
6.672144256984668
 30
0.0
 10
6.589061644304707
 20
6.655394573527871
 30
0.0
 10
6.594460189997984
 20
6.638394774585933
 30
0.0
 10
6.602281005318929
 20
6.621178442860168
 30
0.0
 10
6.611531388555497
 20
6.605418808813153
 30
0.0
 10
6.619944584688714
 20
6.593298055172574
 30
0.0
 10
6.628343460491427
 20
6.582531334433646
 30
0.0
 10
6.637419310777847
 20
6.571999587071029
 30
0.0
 10
6.648929452403518
 20
6.560132549388918
 30
0.0
 10
6.660242454142886
 20
6.549568503013348
 30
0.0
 10
6.669453111376958
 20
6.541187675258853
 30
0.0
 10
6.675514886140005
 20
6.535393209130724
 30
0.0
 10
6.678329079973493
 20
6.532385813446637
 30
0.0
 10
6.679424801731686
 20
6.530862623316597
 30
0.0
 10
6.679321486453373
 20
6.531017211120179
 30
0.0
 10
6.679286499419226
 20
6.531069561255133
 30
0.0
  0
SPLINE
  5
1F3
330
1F
100
AcDbEntity
  8
0
  6
Continuous
 62
     7
370
    25
100
AcDbSpline
210
0.0
220
0.0
230
1.0
 70
     8
 71
     3
 72
    11
 73
     7
 74
     0
 42
0.000000001
 43
0.00000001
 40
0.0
 40
0.0
 40
0.0
 40
0.0
 40
0.270090606492799
 40
0.6088012078690012
 40
0.8948163478910496
 40
1.0
 40
1.0
 40
1.0
 40
1.0
 10
6.673579157975247
 20
6.537181738084106
 30
0.0
 10
6.671626368367815
 20
6.535298937609583
 30
0.0
 10
6.667224657819061
 20
6.531054986966685
 30
0.0
 10
6.657374502662
 20
6.522157975490136
 30
0.0
 10
6.649106855166364
 20
6.514319235271037
 30
0.0
 10
6.64446426777207
 20
6.509437484850361
 30
0.0
 10
6.643215991174112
 20
6.508124903246685
 30
0.0
  0
SPLINE
  5
1F4
330
1F
100
AcDbEntity
  8
0
  6
Continuous
 62
     7
370
    25
100
AcDbSpline
210
0.0
220
0.0
230
1.0
 70
     8
 71
     3
 72
    28
 73
    24
 74
     0
 42
0.000000001
 43
0.00000001
 40
0.0
 40
0.0
 40
0.0
 40
0.0
 40
0.0020149714285228
 40
0.0686144279210329
 40
0.1428299686132127
 40
0.2036335952299544
 40
0.2520105477585116
 40
0.2930484314434834
 40
0.3294650250684961
 40
0.3650947093730785
 40
0.4135050422611853
 40
0.4625929821024442
 40
0.4987863999952972
 40
0.5291852599134306
 40
0.5680947612573946
 40
0.6374448369364726
 40
0.691048663572335
 40
0.7371248098219803
 40
0.7956995436189161
 40
0.8620440186444335
 40
0.9307990492965615
 40
0.9945030664644036
 40
1.0
 40
1.0
 40
1.0
 40
1.0
 10
6.604727568061523
 20
6.457011225074007
 30
0.0
 10
6.604620935848406
 20
6.456824918178254
 30
0.0
 10
6.600989862872688
 20
6.450480738360681
 30
0.0
 10
6.594761697639778
 20
6.436365861036528
 30
0.0
 10
6.587984843865232
 20
6.41570336090403
 30
0.0
 10
6.584373581861595
 20
6.396218934663757
 30
0.0
 10
6.583267010350892
 20
6.380050582384452
 30
0.0
 10
6.583673704144219
 20
6.366488604206719
 30
0.0
 10
6.584985676955077
 20
6.354370243249815
 30
0.0
 10
6.587279404326577
 20
6.341590129595574
 30
0.0
 10
6.590920403821399
 20
6.327698867876353
 30
0.0
 10
6.59580909767418
 20
6.314143150820722
 30
0.0
 10
6.600947855232003
 20
6.302827167016999
 30
0.0
 10
6.606237422922393
 20
6.292865358585046
 30
0.0
 10
6.613869994481227
 20
6.280289246039136
 30
0.0
 10
6.623790980086439
 20
6.266558009746144
 30
0.0
 10
6.634833837178952
 20
6.253449099596939
 30
0.0
 10
6.645317592682026
 20
6.242268674772569
 30
0.0
 10
6.656389816268201
 20
6.231621964142543
 30
0.0
 10
6.668086884969044
 20
6.220955527833481
 30
0.0
 10
6.676732437591097
 20
6.213094044161815
 30
0.0
 10
6.67964030868172
 20
6.208808246967348
 30
0.0
 10
6.679239653150425
 20
6.209711909300752
 30
0.0
 10
6.67920782733295
 20
6.209783691143844
 30
0.0
  0
SPLINE
  5
1F5
330
1F
100
AcDbEntity
  8
0
  6
Continuous
 62
     7
370
    25
100
AcDbSpline
210
0.0
220
0.0
230
1.0
 70
     8
 71
     3
 72
    11
 73
     7
 74
     0
 42
0.000000001
 43
0.00000001
 40
0.0
 40
0.0
 40
0.0
 40
0.0
 40
0.2014324796776334
 40
0.4876593591321681
 40
0.9012071303295475
 40
1.0
 40
1.0
 40
1.0
 40
1.0
 10
6.673581003649939
 20
6.21566121487709
 30
0.0
 10
6.672094493756863
 20
6.214237249500903
 30
0.0
 10
6.668495717318422
 20
6.210789890644532
 30
0.0
 10
6.65929010426511
 20
6.202380624934171
 30
0.0
 10
6.650252421239358
 20
6.194225581075192
 30
0.0
 10
6.644285751287407
 20
6.18775005003223
 30
0.0
 10
6.643135219004956
 20
6.186501395829646
 30
0.0
  0
SPLINE
  5
1F6
330
1F
100
AcDbEntity
  8
0
  6
Continuous
 62
     7
370
    25
100
AcDbSpline
210
0.0
220
0.0
230
1.0
 70
     8
 71
     3
 72
    17
 73
    13
 74
     0
 42
0.000000001
 43
0.00000001
 40
0.0
 40
0.0
 40
0.0
 40
0.0
 40
0.0483447319064164
 40
0.1329134899048436
 40
0.207406678240459
 40
0.2857489224858827
 40
0.4078435601264979
 40
0.523700525663849
 40
0.7454997508859712
 40
0.8605041851604418
 40
0.9876810187334196
 40
0.9999999999999999
 40
0.9999999999999999
 40
0.9999999999999999
 40
0.9999999999999999
 10
6.677709790898115
 20
6.127682387695369
 30
0.0
 10
6.67644436349233
 20
6.12905793825261
 30
0.0
 10
6.672965341764589
 20
6.132839720008218
 30
0.0
 10
6.667648837892283
 20
6.139337803689637
 30
0.0
 10
6.661841708170076
 20
6.147185454741913
 30
0.0
 10
6.655499138011547
 20
6.156913101173309
 30
0.0
 10
6.649027387688152
 20
6.168930823734106
 30
0.0
 10
6.641659219384314
 20
6.187593594260569
 30
0.0
 10
6.638025615470929
 20
6.207414621873312
 30
0.0
 10
6.639032792933019
 20
6.227621502804323
 30
0.0
 10
6.640605527863516
 20
6.238784473914407
 30
0.0
 10
6.642706714740886
 20
6.244493913156562
 30
0.0
 10
6.642892272148538
 20
6.244998118068715
 30
0.0
  0
SPLINE
  5
1F7
330
1F
100
AcDbEntity
  8
0
  6
Continuous
 62
     7
370
    25
100
AcDbSpline
210
0.0
220
0.0
230
1.0
 70
     8
 71
     3
 72
    28
 73
    24
 74
     0
 42
0.000000001
 43
0.00000001
 40
0.0
 40
0.0
 40
0.0
 40
0.0
 40
0.0358753224501471
 40
0.0767178743338418
 40
0.1127684841077381
 40
0.1537739398995381
 40
0.1928106453687937
 40
0.2367134494717252
 40
0.2816426262888254
 40
0.3267525324375795
 40
0.3650650292751474
 40
0.3959833942428609
 40
0.4229369890025456
 40
0.461335576139161
 40
0.5086762363957256
 40
0.5540552982052895
 40
0.6377795082189669
 40
0.7153727897164316
 40
0.79321568504807
 40
0.8673609420415627
 40
0.9350540440096647
 40
0.970248583890606
 40
0.9999999999999999
 40
0.9999999999999999
 40
0.9999999999999999
 40
0.9999999999999999
 10
6.671432475455479
 20
6.296419168076658
 30
0.0
 10
6.674317783931788
 20
6.299814561378114
 30
0.0
 10
6.680487895250159
 20
6.307075467728906
 30
0.0
 10
6.689530358881806
 20
6.315962185232562
 30
0.0
 10
6.69842317293118
 20
6.324297845243922
 30
0.0
 10
6.70635986470077
 20
6.331490564029279
 30
0.0
 10
6.714071178508975
 20
6.338751493354061
 30
0.0
 10
6.721414976438925
 20
6.346622267711516
 30
0.0
 10
6.728160439835808
 20
6.356259755321628
 30
0.0
 10
6.732537251592608
 20
6.367249853703234
 30
0.0
 10
6.733451962148925
 20
6.378819858671939
 30
0.0
 10
6.731584545770271
 20
6.388229146291159
 30
0.0
 10
6.727925304626005
 20
6.396778933868305
 30
0.0
 10
6.722677729424193
 20
6.404643334094943
 30
0.0
 10
6.715233042203852
 20
6.412914264249956
 30
0.0
 10
6.704292898024624
 20
6.423348003655277
 30
0.0
 10
6.689314977591839
 20
6.436716644932408
 30
0.0
 10
6.669338595815684
 20
6.457578376407857
 30
0.0
 10
6.651859072855451
 20
6.482817184424536
 30
0.0
 10
6.640447201165504
 20
6.511192503297825
 30
0.0
 10
6.63793002695989
 20
6.535645758611663
 30
0.0
 10
6.639518395709556
 20
6.55387341437752
 30
0.0
 10
6.641925893725689
 20
6.562479534214274
 30
0.0
 10
6.643028756470077
 20
6.566421954468873
 30
0.0
  0
SPLINE
  5
1F8
330
1F
100
AcDbEntity
  8
0
  6
Continuous
 62
     7
370
    25
100
AcDbSpline
210
0.0
220
0.0
230
1.0
 70
     8
 71
     3
 72
    24
 73
    20
 74
     0
 42
0.000000001
 43
0.00000001
 40
0.0
 40
0.0
 40
0.0
 40
0.0
 40
0.0115707232806844
 40
0.0682377049884859
 40
0.1624242730882285
 40
0.2398732067717489
 40
0.2793635975942738
 40
0.3306815780024224
 40
0.3920257787440807
 40
0.4453936666491459
 40
0.4893013447599837
 40
0.5237651941855245
 40
0.5653422685723832
 40
0.622300536595582
 40
0.7374965831441259
 40
0.8407395224666366
 40
0.8883303355462422
 40
0.9349289006755687
 40
1.0
 40
1.0
 40
1.0
 40
1.0
 10
6.671169002557519
 20
6.617522470169162
 30
0.0
 10
6.671876708824966
 20
6.618449204230976
 30
0.0
 10
6.676050367664183
 20
6.623914567456658
 30
0.0
 10
6.686582186788699
 20
6.634597262559521
 30
0.0
 10
6.700258818111766
 20
6.647540469900875
 30
0.0
 10
6.710982318964739
 20
6.65716572997023
 30
0.0
 10
6.718695483363788
 20
6.665061542481086
 30
0.0
 10
6.725282838660821
 20
6.673136294694768
 30
0.0
 10
6.730841429504389
 20
6.683255841508088
 30
0.0
 10
6.733456363290296
 20
6.695180071695109
 30
0.0
 10
6.732699346589638
 20
6.705462690603007
 30
0.0
 10
6.729807940962433
 20
6.714472144139767
 30
0.0
 10
6.725360120132425
 20
6.722511963395581
 30
0.0
 10
6.716480670336469
 20
6.733577896206692
 30
0.0
 10
6.703072995452693
 20
6.745804254569022
 30
0.0
 10
6.687023466638547
 20
6.760512718523639
 30
0.0
 10
6.674379094450052
 20
6.774114767762983
 30
0.0
 10
6.664283933946455
 20
6.786193513428285
 30
0.0
 10
6.658133724838773
 20
6.796191332564484
 30
0.0
 10
6.654549932681165
 20
6.802017167944411
 30
0.0
  0
SPLINE
  5
1F9
330
1F
100
AcDbEntity
  8
0
  6
Continuous
 62
     7
370
    25
100
AcDbSpline
210
0.0
220
0.0
230
1.0
 70
     8
 71
     3
 72
    20
 73
    16
 74
     0
 42
0.000000001
 43
0.00000001
 40
0.0
 40
0.0
 40
0.0
 40
0.0
 40
0.0352159483285624
 40
0.1457613894770844
 40
0.2191436948286256
 40
0.2779775575300551
 40
0.33673399855664
 40
0.4017904299586625
 40
0.4911877862212857
 40
0.5921111610941259
 40
0.6731700663283976
 40
0.7654322550574231
 40
0.8472429333196589
 40
0.9263877789505325
 40
1.0
 40
1.0
 40
1.0
 40
1.0
 10
6.595017045715312
 20
6.800031569346567
 30
0.0
 10
6.595667665942376
 20
6.798039654856556
 30
0.0
 10
6.598360630716003
 20
6.789794974887285
 30
0.0
 10
6.604505940690451
 20
6.778288111378795
 30
0.0
 10
6.611694457981676
 20
6.765962352810943
 30
0.0
 10
6.617930362739997
 20
6.756752061905484
 30
0.0
 10
6.624199658878084
 20
6.748388075708657
 30
0.0
 10
6.631776308799959
 20
6.739180626163382
 30
0.0
 10
6.641071002532959
 20
6.728939103683346
 30
0.0
 10
6.650982739097492
 20
6.718996733893324
 30
0.0
 10
6.660524710551297
 20
6.710011100190759
 30
0.0
 10
6.668611728513731
 20
6.702660418289481
 30
0.0
 10
6.674810887687347
 20
6.696865300146747
 30
0.0
 10
6.678743321026386
 20
6.692607568988366
 30
0.0
 10
6.679008080840236
 20
6.692186076060603
 30
0.0
 10
6.679135666151775
 20
6.691982962507536
 30
0.0
  0
SPLINE
  5
1FA
330
1F
100
AcDbEntity
  8
0
  6
Continuous
 62
     7
370
    25
100
AcDbSpline
210
0.0
220
0.0
230
1.0
 70
     8
 71
     3
 72
    11
 73
     7
 74
     0
 42
0.000000001
 43
0.00000001
 40
0.0
 40
0.0
 40
0.0
 40
0.0
 40
0.2182554950952385
 40
0.5605282687800051
 40
0.8512765415973161
 40
1.0
 40
1.0
 40
1.0
 40
1.0
 10
6.673562227677463
 20
6.697941383065666
 30
0.0
 10
6.672104629548041
 20
6.696507614997244
 30
0.0
 10
6.66836119593733
 20
6.692825382241207
 30
0.0
 10
6.65902921340594
 20
6.684354187661701
 30
0.0
 10
6.650301815164869
 20
6.676183989371994
 30
0.0
 10
6.645074055545814
 20
6.670805159457314
 30
0.0
 10
6.643304907646163
 20
6.668984887229903
 30
0.0
  0
SPLINE
  5
1FB
330
1F
100
AcDbEntity
  8
0
  6
Continuous
 62
     7
370
    25
100
AcDbSpline
210
0.0
220
0.0
230
1.0
 70
     8
 71
     3
 72
    28
 73
    24
 74
     0
 42
0.000000001
 43
0.00000001
 40
0.0
 40
0.0
 40
0.0
 40
0.0
 40
0.0073473328541979
 40
0.0512571929313095
 40
0.1270941095294763
 40
0.1898044529061493
 40
0.2385263212802731
 40
0.2804100979829124
 40
0.3171368493522072
 40
0.36836124284373
 40
0.4167419816994536
 40
0.4622667403682902
 40
0.4958455744001016
 40
0.5453231706528955
 40
0.6128311359095665
 40
0.6709007915322847
 40
0.715247088074024
 40
0.7703249209862114
 40
0.8340840727835525
 40
0.9033443833147523
 40
0.9387639747975081
 40
0.9739019175937222
 40
1.0
 40
1.0
 40
1.0
 40
1.0
 10
6.604712627657086
 20
6.6175489114074
 30
0.0
 10
6.60432444651711
 20
6.616867420441648
 30
0.0
 10
6.601616378708171
 20
6.612113135505107
 30
0.0
 10
6.595786142282171
 20
6.599733045478814
 30
0.0
 10
6.589108254183974
 20
6.581154755676251
 30
0.0
 10
6.585101892114731
 20
6.561286947217309
 30
0.0
 10
6.58355248956199
 20
6.544798482913764
 30
0.0
 10
6.583488699638184
 20
6.531046694529246
 30
0.0
 10
6.584527608389899
 20
6.517066796927375
 30
0.0
 10
6.586993591415796
 20
6.502532035909579
 30
0.0
 10
6.591220532446494
 20
6.487429866518712
 30
0.0
 10
6.596067275706102
 20
6.474554548793464
 30
0.0
 10
6.601807336708174
 20
6.461972154219591
 30
0.0
 10
6.609471016257506
 20
6.447794116172934
 30
0.0
 10
6.619761745786542
 20
6.432370849412354
 30
0.0
 10
6.630767697139347
 20
6.418797905601492
 30
0.0
 10
6.641184321368212
 20
6.407351698627187
 30
0.0
 10
6.651957945929769
 20
6.396540582115035
 30
0.0
 10
6.66366016924751
 20
6.385659943456083
 30
0.0
 10
6.672567139933394
 20
6.377566471718989
 30
0.0
 10
6.677160477171204
 20
6.372948851091326
 30
0.0
 10
6.67908273335549
 20
6.370658964354627
 30
0.0
 10
6.679239099165168
 20
6.370405871367812
 30
0.0
 10
6.679305740456352
 20
6.370298006077659
 30
0.0
  0
SPLINE
  5
1FC
330
1F
100
AcDbEntity
  8
0
  6
Continuous
 62
     7
370
    25
100
AcDbSpline
210
0.0
220
0.0
230
1.0
 70
     8
 71
     3
 72
    11
 73
     7
 74
     0
 42
0.000000001
 43
0.00000001
 40
0.0
 40
0.0
 40
0.0
 40
0.0
 40
0.1289233962187887
 40
0.3972445373182681
 40
0.7626100830690962
 40
1.0
 40
1.0
 40
1.0
 40
1.0
 10
6.673609596213529
 20
6.376457043074071
 30
0.0
 10
6.672755611551788
 20
6.375618754438613
 30
0.0
 10
6.670124275799088
 20
6.373035781984441
 30
0.0
 10
6.662678449976497
 20
6.366236848351743
 30
0.0
 10
6.65330004418295
 20
6.357628678655963
 30
0.0
 10
6.646347033459494
 20
6.35057994020679
 30
0.0
 10
6.643608651577865
 20
6.347803856805617
 30
0.0
  0
SPLINE
  5
1FD
330
1F
100
AcDbEntity
  8
0
  6
Continuous
 62
     7
370
    25
100
AcDbSpline
210
0.0
220
0.0
230
1.0
 70
     8
 71
     3
 72
    16
 73
    12
 74
     0
 42
0.000000001
 43
0.00000001
 40
0.0
 40
0.0
 40
0.0
 40
0.0
 40
0.0729230778923732
 40
0.1766736326705555
 40
0.2632218998581684
 40
0.3689178282320923
 40
0.5067844270463565
 40
0.6389977012747083
 40
0.7489605534752004
 40
0.8528870161267765
 40
1.0
 40
1.0
 40
1.0
 40
1.0
 10
6.604766121434884
 20
6.295814920988829
 30
0.0
 10
6.602853773728496
 20
6.292307540422973
 30
0.0
 10
6.598220653103563
 20
6.283810070436278
 30
0.0
 10
6.592810055777833
 20
6.270286330098292
 30
0.0
 10
6.588015782725124
 20
6.254633504712481
 30
0.0
 10
6.584527898365023
 20
6.236682145650401
 30
0.0
 10
6.583081482156142
 20
6.215906695426312
 30
0.0
 10
6.584444359277597
 20
6.194877863199165
 30
0.0
 10
6.588162314309701
 20
6.176092356746444
 30
0.0
 10
6.593962218385366
 20
6.156899518014244
 30
0.0
 10
6.60050085762354
 20
6.144742973064929
 30
0.0
 10
6.604332600969514
 20
6.137619050407195
 30
0.0
  0
ARC
  5
1FE
330
1F
100
AcDbEntity
  8
0
  6
Continuous
 62
     7
370
    25
100
AcDbCircle
 10
6.5503797468
 20
5.7260365033
 30
0.0
 40
0.47244094488189
100
AcDbArc
 50
212.794376991
 51
273.718985576
  0
ARC
  5
1FF
330
1F
100
AcDbEntity
  8
0
  6
Continuous
 62
     7
370
    25
100
AcDbCircle
 10
6.5503797468
 20
5.7260365033
 30
0.0
 40
0.4724409448818904
100
AcDbArc
 50
279.9737114489
 51
327.1588168899
  0
LINE
  5
200
330
1F
100
AcDbEntity
  8
0
  6
Continuous
 62
     7
370
    25
100
AcDbLine
 10
5.8947903925
 20
6.0864414053
 30
0.0
 11
5.9042132051
 21
5.9397300413
 31
0.0
  0
LINE
  5
201
330
1F
100
AcDbEntity
  8
0
  6
Continuous
 62
     7
370
    25
100
AcDbLine
 10
7.1965462885
 20
5.9397300413
 30
0.0
 11
7.2059691012
 21
6.0864414053
 31
0.0
  0
LINE
  5
202
330
1F
100
AcDbEntity
  8
0
  6
Continuous
 62
     7
370
    25
100
AcDbLine
 10
5.92530203
 20
5.8580322716
 30
0.0
 11
6.0301060568
 21
5.6294915063
 31
0.0
  0
LINE
  5
203
330
1F
100
AcDbEntity
  8
0
  6
Continuous
 62
     7
370
    25
100
AcDbLine
 10
7.0706534368
 20
5.6294915063
 30
0.0
 11
7.1754574637
 21
5.8580322716
 31
0.0
  0
LWPOLYLINE
  5
204
330
1F
100
AcDbEntity
  8
0
  6
Continuous
 62
     7
370
    25
100
AcDbPolyline
 90
       17
 70
   128
 43
0.0
 10
6.7867421547
 20
6.6904819354
 10
6.7821224302
 20
6.692820752
 10
6.7794047479
 20
6.6960021321
 10
6.779002881
 20
6.6995417216
 10
6.7809779733
 20
6.702900672
 10
6.7850293832
 20
6.7055675846
 10
6.790540281
 20
6.7071364701
 10
6.7966716999
 20
6.7073684671
 10
6.8024901836
 20
6.7062282631
 10
6.8071099333
 20
6.7038894311
 10
6.8098276156
 20
6.700708051
 10
6.8102294833
 20
6.697168462
 10
6.8082543651
 20
6.6938095265
 10
6.8042029803
 20
6.6911425986
 10
6.7986920574
 20
6.6895737285
 10
6.7925606373
 20
6.6893417307
 10
6.7867421547
 20
6.6904819354
  0
LWPOLYLINE
  5
205
330
1F
100
AcDbEntity
  8
0
  6
Continuous
 62
     7
370
    25
100
AcDbPolyline
 90
       17
 70
   128
 43
0.0
 10
6.2681037633
 20
6.920222375
 10
6.2732127853
 20
6.9182516668
 10
6.2792393004
 20
6.9175596402
 10
6.2852658059
 20
6.9182516649
 10
6.2903748344
 20
6.9202223768
 10
6.2937885806
 20
6.9231717581
 10
6.2949873326
 20
6.9266507856
 10
6.2937885774
 20
6.9301298188
 10
6.2903748408
 20
6.9330791944
 10
6.2852658188
 20
6.9350499025
 10
6.2792393037
 20
6.9357419292
 10
6.2732127983
 20
6.9350499044
 10
6.2681037536
 20
6.9330791981
 10
6.2646900235
 20
6.9301298113
 10
6.2634912715
 20
6.9266507837
 10
6.2646900267
 20
6.9231717506
 10
6.2681037633
 20
6.920222375
  0
ARC
  5
206
330
1F
100
AcDbEntity
  8
0
  6
Continuous
 62
     7
370
    25
100
AcDbCircle
 10
6.9233461503
 20
5.9955461318
 30
0.0
 40
0.0899333654510213
100
AcDbArc
 50
244.7429873698
 51
300.5524410792
  0
LWPOLYLINE
  5
207
330
1F
100
AcDbEntity
  8
0
  6
Continuous
 62
     7
370
    25
100
AcDbPolyline
 90
       24
 70
   128
 43
0.0
 10
6.9690616877
 20
5.9180987313
 10
6.9944459599
 20
5.9370885497
 10
7.0172517192
 20
5.9571390863
 10
7.0373465761
 20
5.9781338917
 10
7.0546138464
 20
5.9999510647
 10
7.0689532253
 20
6.0224639407
 10
7.0802815002
 20
6.0455417728
 10
7.0885328813
 20
6.069050581
 10
7.0936594429
 20
6.0928538261
 10
7.0956314208
 20
6.11681333
 10
7.0944373551
 20
6.1407899564
 10
7.0900841944
 20
6.1646444795
 10
7.0825972175
 20
6.1882384069
 10
7.0720199037
 20
6.2114347126
 10
7.0584136482
 20
6.234098721
 10
7.0418574634
 20
6.256098817
 10
7.0224475057
 20
6.2773072883
 10
7.0002964537
 20
6.2976009539
 10
6.9755329246
 20
6.3168619799
 10
6.9483007326
 20
6.334978547
 10
6.9187580006
 20
6.3518454532
 10
6.8870762313
 20
6.3673647399
 10
6.8534394599
 20
6.3814463304
 10
6.848432078
 20
6.3833560132
  0
ARC
  5
208
330
1F
100
AcDbEntity
  8
0
  6
Continuous
 62
     7
370
    25
100
AcDbCircle
 10
6.5709899508
 20
5.6272808249
 30
0.0
 40
0.8055627557710243
100
AcDbArc
 50
72.6144652744
 51
80.2833336036
  0
ARC
  5
209
330
1F
100
AcDbEntity
  8
0
  6
Continuous
 62
     7
370
    25
100
AcDbCircle
 10
6.5424400723
 20
5.612095867
 30
0.0
 40
0.8230572689263315
100
AcDbArc
 50
86.3985509407
 51
115.6051283704
  0
ARC
  5
20A
330
1F
100
AcDbEntity
  8
0
  6
Continuous
 62
     7
370
    25
100
AcDbCircle
 10
6.3431521553
 20
6.0154225939
 30
0.0
 40
0.3722405834819845
100
AcDbArc
 50
119.781599485
 51
142.0402820784
  0
LWPOLYLINE
  5
20B
330
1F
100
AcDbEntity
  8
0
  6
Continuous
 62
     7
370
    25
100
AcDbPolyline
 90
        9
 70
   128
 43
0.0
 10
6.0651473008
 20
6.20516344
 10
6.0586253249
 20
6.2089974959
 10
6.0532279564
 20
6.2133755236
 10
6.0490892893
 20
6.2181887708
 10
6.0463121371
 20
6.223317641
 10
6.0449655303
 20
6.2286347103
 10
6.0450828757
 20
6.2340078844
 10
6.0466612954
 20
6.2393036701
 10
6.049661523
 20
6.2443904972
  0
LINE
  5
20C
330
1F
100
AcDbEntity
  8
0
  6
Continuous
 62
     7
370
    25
100
AcDbLine
 10
6.1662738233
 20
6.1544152592
 30
0.0
 11
6.0651473008
 21
6.20516344
 31
0.0
  0
ARC
  5
20D
330
1F
100
AcDbEntity
  8
0
  6
Continuous
 62
     7
370
    25
100
AcDbCircle
 10
6.3855898515
 20
6.5989790431
 30
0.0
 40
0.4957181438838183
100
AcDbArc
 50
243.7415586547
 51
256.2940959657
  0
LINE
  5
20E
330
1F
100
AcDbEntity
  8
0
  6
Continuous
 62
     7
370
    25
100
AcDbLine
 10
6.6345925518
 20
6.0257800753
 30
0.0
 11
6.2681352581
 21
6.1173766172
 31
0.0
  0
ARC
  5
20F
330
1F
100
AcDbEntity
  8
0
  6
Continuous
 62
     7
370
    25
100
AcDbCircle
 10
6.5171382147
 20
5.544178383
 30
0.0
 40
0.4957173703737405
100
AcDbArc
 50
63.7415496801
 51
76.2941046627
  0
LINE
  5
210
330
1F
100
AcDbEntity
  8
0
  6
Continuous
 62
     7
370
    25
100
AcDbLine
 10
6.8849734326
 20
5.9142101327
 30
0.0
 11
6.7364539703
 21
5.9887414388
 31
0.0
  0
LWPOLYLINE
  5
211
330
1F
100
AcDbEntity
  8
0
  6
Continuous
 62
     7
370
    25
100
AcDbPolyline
 90
       75
 70
   128
 43
0.0
 10
6.0920572962
 20
6.3843461081
 10
6.0615292016
 20
6.3654617083
 10
6.0333306433
 20
6.3454064757
 10
6.0075960787
 20
6.3242759317
 10
5.984448116
 20
6.3021707914
 10
5.9639971071
 20
6.2791963685
 10
5.9463404658
 20
6.2554621825
 10
5.9315623511
 20
6.2310813265
 10
5.9197331547
 20
6.2061699916
 10
5.9109093064
 20
6.1808468761
 10
5.9051327822
 20
6.1552326614
 10
5.90243122
 20
6.1294494208
 10
5.902817376
 20
6.1036200062
 10
5.9062894871
 20
6.0778675384
 10
5.91283096
 20
6.0523146897
 10
5.9224106566
 20
6.0270832789
 10
5.9349829195
 20
6.0022935085
 10
5.9504878184
 20
5.9780635528
 10
5.9688514746
 20
5.9545088324
 10
5.9899863976
 20
5.9317416394
 10
6.0137918222
 20
5.9098704344
 10
6.0401543571
 20
5.8889994722
 10
6.0689483245
 20
5.8692281863
 10
6.100036527
 20
5.8506508061
 10
6.1332708555
 20
5.8333558868
 10
6.168492859
 20
5.8174257998
 10
6.205534769
 20
5.8029365016
 10
6.2442199939
 20
5.7899570083
 10
6.2843642059
 20
5.7785491872
 10
6.3257761032
 20
5.7687674071
 10
6.3682583557
 20
5.7606582911
 10
6.4116084999
 20
5.75426044
 10
6.4556199368
 20
5.7496043945
 10
6.5000829693
 20
5.7467123062
 10
6.5447856705
 20
5.7455979751
 10
6.5895150246
 20
5.7462666995
 10
6.6340578862
 20
5.7487153214
 10
6.6782019913
 20
5.7529321212
 10
6.7217369428
 20
5.7588970579
 10
6.7644553379
 20
5.7665816711
 10
6.8061535465
 20
5.7759493506
 10
6.8466328903
 20
5.7869554492
 10
6.885700408
 20
5.7995475436
 10
6.9231700025
 20
5.813665589
 10
6.9588631181
 20
5.8292423089
 10
6.9926095622
 20
5.8462035209
 10
7.0242486039
 20
5.8644683509
 10
7.0536294682
 20
5.8839497584
 10
7.0806120623
 20
5.9045549554
 10
7.1050678839
 20
5.9261856919
 10
7.1268803947
 20
5.9487388898
 10
7.1459455823
 20
5.9721071176
 10
7.1621726375
 20
5.996178981
 10
7.1754842203
 20
6.0208397856
 10
7.1858169133
 20
6.0459719781
 10
7.1931214163
 20
6.0714558276
 10
7.1973630134
 20
6.0971698742
 10
7.1985214035
 20
6.1229915807
 10
7.1965911162
 20
6.1487979008
 10
7.1915813296
 20
6.1744658632
 10
7.1835159484
 20
6.1998731249
 10
7.1724333443
 20
6.2248986304
 10
7.1583864215
 20
6.2494231128
 10
7.1414420453
 20
6.2733296922
 10
7.1216809784
 20
6.2965044525
 10
7.0991974004
 20
6.3188369575
 10
7.0740984802
 20
6.340220797
 10
7.0465037704
 20
6.3605540268
 10
7.0165448452
 20
6.3797397962
 10
6.9843643921
 20
6.3976866336
 10
6.9501158095
 20
6.4143090371
 10
6.9139623253
 20
6.4295278045
 10
6.8760761819
 20
6.4432703837
 10
6.8366379736
 20
6.455471315
 10
6.8283195065
 20
6.457792812
  0
ARC
  5
212
330
1F
100
AcDbEntity
  8
0
  6
Continuous
 62
     7
370
    25
100
AcDbCircle
 10
6.5612930127
 20
5.4679630716
 30
0.0
 40
1.025298760125281
100
AcDbArc
 50
76.9020685585
 51
82.3823280198
  0
ARC
  5
213
330
1F
100
AcDbEntity
  8
0
  6
Continuous
 62
     7
370
    25
100
AcDbCircle
 10
6.5431042381
 20
5.4869907001
 30
0.0
 40
1.007343986205336
100
AcDbArc
 50
87.3222182106
 51
111.861255824
  0
LWPOLYLINE
  5
214
330
1F
100
AcDbEntity
  8
0
  6
Continuous
 62
     7
370
    25
100
AcDbPolyline
 90
        3
 70
   128
 43
0.0
 10
6.1388086283
 20
6.4088260777
 10
6.1247695807
 20
6.401969602
 10
6.0920572962
 20
6.3843461081
  0
LWPOLYLINE
  5
215
330
1F
100
AcDbEntity
  8
0
  6
Continuous
 62
     7
370
    25
100
AcDbPolyline
 90
       47
 70
   128
 43
0.0
 10
5.9022139522
 20
6.1004738264
 10
5.9033964803
 20
6.0778815114
 10
5.9076380773
 20
6.0521674648
 10
5.9149425804
 20
6.0266836153
 10
5.9252752734
 20
6.0015514228
 10
5.9385868561
 20
5.9768906182
 10
5.9548139113
 20
5.9528187548
 10
5.9738790989
 20
5.929450527
 10
5.9956916098
 20
5.9068973291
 10
6.0201474314
 20
5.8852665926
 10
6.0471300254
 20
5.8646613956
 10
6.0765108898
 20
5.8451799881
 10
6.1081499315
 20
5.8269151581
 10
6.1418963756
 20
5.8099539461
 10
6.1775894911
 20
5.7943772261
 10
6.2150590856
 20
5.7802591808
 10
6.2541266034
 20
5.7676670864
 10
6.2946059472
 20
5.7566609878
 10
6.3363041557
 20
5.7472933083
 10
6.3790225509
 20
5.7396086951
 10
6.4225575023
 20
5.7336437584
 10
6.4667016074
 20
5.7294269585
 10
6.511244469
 20
5.7269783367
 10
6.5559738232
 20
5.7263096123
 10
6.6006765244
 20
5.7274239434
 10
6.6451395569
 20
5.7303160317
 10
6.6891509938
 20
5.7349720772
 10
6.732501138
 20
5.7413699283
 10
6.7749833904
 20
5.7494790443
 10
6.8163952877
 20
5.7592608244
 10
6.8565394998
 20
5.7706686455
 10
6.8952247247
 20
5.7836481388
 10
6.9322666347
 20
5.798137437
 10
6.9674886381
 20
5.8140675239
 10
7.0007229666
 20
5.8313624433
 10
7.0318111692
 20
5.8499398235
 10
7.0606051366
 20
5.8697111094
 10
7.0869676714
 20
5.8905820715
 10
7.1107730961
 20
5.9124532765
 10
7.1319080191
 20
5.9352204696
 10
7.1502716753
 20
5.95877519
 10
7.1657765742
 20
5.9830051457
 10
7.178348837
 20
6.0077949161
 10
7.1879285336
 20
6.0330263269
 10
7.1944700066
 20
6.0585791756
 10
7.1979421177
 20
6.0843316434
 10
7.1985455415
 20
6.1004738264
  0
LINE
  5
216
330
1F
100
AcDbEntity
  8
0
  6
Continuous
 62
     7
370
    25
100
AcDbLine
 10
6.049661523
 20
6.2443904972
 30
0.0
 11
6.049661523
 21
6.2251021344
 31
0.0
  0
ARC
  5
217
330
1F
100
AcDbEntity
  8
0
  6
Continuous
 62
     7
370
    25
100
AcDbCircle
 10
6.8191938124
 20
6.0694614469
 30
0.0
 40
0.2791817846587508
100
AcDbArc
 50
8.3736221223
 51
65.2789628858
  0
ARC
  5
218
330
1F
100
AcDbEntity
  8
0
  6
Continuous
 62
     7
370
    25
100
AcDbCircle
 10
6.6411803668
 20
5.8075548202
 30
0.0
 40
0.5938273218830389
100
AcDbArc
 50
60.2388278925
 51
68.8158417521
  0
ARC
  5
219
330
1F
100
AcDbEntity
  8
0
  6
Continuous
 62
     7
370
    25
100
AcDbCircle
 10
6.5756662121
 20
5.6259456483
 30
0.0
 40
0.7870259757501168
100
AcDbArc
 50
72.0736030441
 51
78.9442272447
  0
ARC
  5
21A
330
1F
100
AcDbEntity
  8
0
  6
Continuous
 62
     7
370
    25
100
AcDbCircle
 10
6.5401581198
 20
5.6014237683
 30
0.0
 40
0.8144900003369616
100
AcDbArc
 50
86.6220539424
 51
115.2144842605
  0
ARC
  5
21B
330
1F
100
AcDbEntity
  8
0
  6
Continuous
 62
     7
370
    25
100
AcDbCircle
 10
6.3463612766
 20
5.9929851257
 30
0.0
 40
0.3767081754946338
100
AcDbArc
 50
118.8023439594
 51
141.9628747568
  0
LINE
  5
21C
330
1F
100
AcDbEntity
  8
0
  6
Continuous
 62
     7
370
    25
100
AcDbLine
 10
6.049661523
 20
6.2251021344
 30
0.0
 11
6.0472480611
 21
6.221248666
 31
0.0
  0
ARC
  5
21D
330
1F
100
AcDbEntity
  8
0
  6
Continuous
 62
     7
370
    25
100
AcDbCircle
 10
6.6196320572
 20
6.163544758
 30
0.0
 40
0.0263345576267491
100
AcDbArc
 50
180.7243580624
 51
228.3261896301
  0
LWPOLYLINE
  5
21E
330
1F
100
AcDbEntity
  8
0
  6
Continuous
 62
     7
370
    25
100
AcDbPolyline
 90
       11
 70
   128
 43
0.0
 10
6.6565210565
 20
6.1252614434
 10
6.6655285745
 20
6.1254838782
 10
6.6797104245
 20
6.1273525074
 10
6.6928164292
 20
6.1309960687
 10
6.7041893892
 20
6.136231858
 10
6.7132590249
 20
6.142797328
 10
6.719570542
 20
6.1503632635
 10
6.7228074535
 20
6.1585502712
 10
6.7228074568
 20
6.1669478278
 10
6.7195705404
 20
6.1751348346
 10
6.7158900722
 20
6.1800495498
  0
LWPOLYLINE
  5
21F
330
1F
100
AcDbEntity
  8
0
  6
Continuous
 62
     7
370
    25
100
AcDbPolyline
 90
        3
 70
   128
 43
0.0
 10
6.6599895249
 20
6.2002366612
 10
6.6509820004
 20
6.2000142227
 10
6.6407226581
 20
6.1988583405
  0
LINE
  5
220
330
1F
100
AcDbEntity
  8
0
  6
Continuous
 62
     7
370
    25
100
AcDbLine
 10
6.8084263353
 20
5.986036037
 30
0.0
 11
6.7797688795
 21
5.9670047833
 31
0.0
  0
LWPOLYLINE
  5
221
330
1F
100
AcDbEntity
  8
0
  6
Continuous
 62
     7
370
    25
100
AcDbPolyline
 90
       17
 70
   128
 43
0.0
 10
7.0762207306
 20
6.0364711204
 10
7.0824409039
 20
6.0568460211
 10
7.0866353398
 20
6.0802241946
 10
7.0877519098
 20
6.1037185893
 10
7.0857842877
 20
6.1271943498
 10
7.0807437258
 20
6.1505167701
 10
7.0726591197
 20
6.1735519453
 10
7.0615769046
 20
6.1961676991
 10
7.0475607051
 20
6.218234235
 10
7.0306909079
 20
6.2396248621
 10
7.0110644213
 20
6.2602168524
 10
6.9887938137
 20
6.2798919976
 10
6.9640069373
 20
6.2985373658
 10
6.936846053
 20
6.3160459559
 10
6.9074670476
 20
6.3323172692
 10
6.8760385619
 20
6.3472579328
 10
6.8580703176
 20
6.3548258758
  0
ARC
  5
222
330
1F
100
AcDbEntity
  8
0
  6
Continuous
 62
     7
370
    25
100
AcDbCircle
 10
6.5760330792
 20
5.6356303374
 30
0.0
 40
0.7727317467943587
100
AcDbArc
 50
71.6092652734
 51
78.5446186548
  0
ARC
  5
223
330
1F
100
AcDbEntity
  8
0
  6
Continuous
 62
     7
370
    25
100
AcDbCircle
 10
6.541947198
 20
5.6010483255
 30
0.0
 40
0.8101986151851553
100
AcDbArc
 50
86.7891350311
 51
115.3274214877
  0
ARC
  5
224
330
1F
100
AcDbEntity
  8
0
  6
Continuous
 62
     7
370
    25
100
AcDbCircle
 10
6.3401765914
 20
6.0055582372
 30
0.0
 40
0.3571199851673743
100
AcDbArc
 50
118.9825178906
 51
144.0042402048
  0
LINE
  5
225
330
1F
100
AcDbEntity
  8
0
  6
Continuous
 62
     7
370
    25
100
AcDbLine
 10
6.1867691673
 20
6.1448072655
 30
0.0
 11
6.2734865966
 21
6.2023957405
 31
0.0
  0
LINE
  5
226
330
1F
100
AcDbEntity
  8
0
  6
Continuous
 62
     7
370
    25
100
AcDbLine
 10
6.2770307749
 20
6.2047494191
 30
0.0
 11
6.3052653926
 21
6.2234998438
 31
0.0
  0
ELLIPSE
  5
227
330
1F
100
AcDbEntity
  8
0
  6
Continuous
 62
     7
370
    25
100
AcDbEllipse
 10
6.2903530989
 20
6.2309419623
 30
0.0
 11
0.0197387690479065
 21
6.479820295446358E-6
 31
0.0
210
0.0
220
0.0
230
1.0
 40
0.5757239137
 41
5.568590500339792
 42
7.136647771393895
  0
LINE
  5
228
330
1F
100
AcDbEntity
  8
0
  6
Continuous
 62
     7
370
    25
100
AcDbLine
 10
6.3033261151
 20
6.2395097495
 30
0.0
 11
6.2385344959
 21
6.2720240331
 31
0.0
  0
SPLINE
  5
229
330
1F
100
AcDbEntity
  8
0
  6
Continuous
 62
     7
370
    25
100
AcDbSpline
210
0.0
220
0.0
230
1.0
 70
     8
 71
     3
 72
    14
 73
    10
 74
     0
 42
0.000000001
 43
0.00000001
 40
0.0
 40
0.0
 40
0.0
 40
0.0
 40
0.2500000000000001
 40
0.2500000000000001
 40
0.5
 40
0.5
 40
0.75
 40
0.75
 40
1.0
 40
1.0
 40
1.0
 40
1.0
 10
6.237965770295649
 20
6.297425252413666
 30
0.0
 10
6.234883262110957
 20
6.295795730526144
 30
0.0
 10
6.23244933208897
 20
6.293815492826082
 30
0.0
 10
6.229163940895724
 20
6.289433872155557
 30
0.0
 10
6.228331807746992
 20
6.287029921716123
 30
0.0
 10
6.228438111561707
 20
6.282272981756933
 30
0.0
 10
6.229377709985618
 20
6.279881807134331
 30
0.0
 10
6.23285726983764
 20
6.275551287602773
 30
0.0
 10
6.23538005012955
 20
6.273607028356635
 30
0.0
 10
6.238534485750586
 20
6.272024042496489
 30
0.0
  0
ARC
  5
22A
330
1F
100
AcDbEntity
  8
0
  6
Continuous
 62
     7
370
    25
100
AcDbCircle
 10
6.4977441415
 20
5.7976606047
 30
0.0
 40
0.5632490488847904
100
AcDbArc
 50
104.9471178361
 51
117.4654741547
  0
LINE
  5
22B
330
1F
100
AcDbEntity
  8
0
  6
Continuous
 62
     7
370
    25
100
AcDbLine
 10
6.3507469054
 20
6.3489162508
 30
0.0
 11
6.3524667695
 21
6.3418517258
 31
0.0
  0
ARC
  5
22C
330
1F
100
AcDbEntity
  8
0
  6
Continuous
 62
     7
370
    25
100
AcDbCircle
 10
6.5488898405
 20
5.592700923
 30
0.0
 40
0.78174308099924
100
AcDbArc
 50
87.4413385544
 51
104.6825288953
  0
LINE
  5
22D
330
1F
100
AcDbEntity
  8
0
  6
Continuous
 62
     7
370
    25
100
AcDbLine
 10
6.6401255831
 20
6.3624524382
 30
0.0
 11
6.6560185177
 21
6.3604698535
 31
0.0
  0
ARC
  5
22E
330
1F
100
AcDbEntity
  8
0
  6
Continuous
 62
     7
370
    25
100
AcDbCircle
 10
6.5914888006
 20
5.7661001435
 30
0.0
 40
0.5968110242931016
100
AcDbArc
 50
65.3599834817
 51
77.336222541
  0
ARC
  5
22F
330
1F
100
AcDbEntity
  8
0
  6
Continuous
 62
     7
370
    25
100
AcDbCircle
 10
6.7383754716
 20
6.0287656056
 30
0.0
 40
0.2952845466859515
100
AcDbArc
 50
30.8129649087
 51
61.4757109234
  0
LINE
  5
230
330
1F
100
AcDbEntity
  8
0
  6
Continuous
 62
     7
370
    25
100
AcDbLine
 10
7.004336553
 20
6.1800213402
 30
0.0
 11
6.9919788357
 21
6.1800213402
 31
0.0
  0
ARC
  5
231
330
1F
100
AcDbEntity
  8
0
  6
Continuous
 62
     7
370
    25
100
AcDbCircle
 10
6.8587262831
 20
6.1004738264
 30
0.0
 40
0.1659221433534025
100
AcDbArc
 50
331.352031221
 51
28.647968779
  0
LINE
  5
232
330
1F
100
AcDbEntity
  8
0
  6
Continuous
 62
     7
370
    25
100
AcDbLine
 10
6.9919788357
 20
6.0209263126
 30
0.0
 11
7.004336553
 21
6.0209263126
 31
0.0
  0
ARC
  5
233
330
1F
100
AcDbEntity
  8
0
  6
Continuous
 62
     7
370
    25
100
AcDbCircle
 10
6.773154168
 20
6.1438560963
 30
0.0
 40
0.2509899736911293
100
AcDbArc
 50
309.1760839476
 51
330.6738997876
  0
SPLINE
  5
234
330
1F
100
AcDbEntity
  8
0
  6
Continuous
 62
     7
370
    25
100
AcDbSpline
210
0.0
220
0.0
230
1.0
 70
     8
 71
     3
 72
    14
 73
    10
 74
     0
 42
0.000000001
 43
0.00000001
 40
0.0
 40
0.0
 40
0.0
 40
0.0
 40
0.25
 40
0.25
 40
0.5
 40
0.5
 40
0.75
 40
0.75
 40
1.0
 40
1.0
 40
1.0
 40
1.0
 10
6.888054103549843
 20
5.946076553187554
 30
0.0
 10
6.891208537510138
 20
5.944493568160815
 30
0.0
 10
6.894892932039705
 20
5.943322395725058
 30
0.0
 10
6.902806867291194
 20
5.941935498106186
 30
0.0
 10
6.907038632288031
 20
5.94173115009368
 30
0.0
 10
6.915213439566197
 20
5.942332188055974
 30
0.0
 10
6.919222067873267
 20
5.943142575318065
 30
0.0
 10
6.92628001592055
 20
5.945629948609535
 30
0.0
 10
6.929339743882367
 20
5.947297638166118
 30
0.0
 10
6.931705992931368
 20
5.949286601010191
 30
0.0
  0
LINE
  5
235
330
1F
100
AcDbEntity
  8
0
  6
Continuous
 62
     7
370
    25
100
AcDbLine
 10
6.8880541051
 20
5.9460765489
 30
0.0
 11
6.8422967734
 21
5.9690388857
 31
0.0
  0
LINE
  5
236
330
1F
100
AcDbEntity
  8
0
  6
Continuous
 62
     7
370
    25
100
AcDbLine
 10
6.8114794766
 20
5.9845038841
 30
0.0
 11
6.8084263353
 21
5.986036037
 31
0.0
  0
ARC
  5
237
330
1F
100
AcDbEntity
  8
0
  6
Continuous
 62
     7
370
    25
100
AcDbCircle
 10
6.3927580913
 20
5.8645866686
 30
0.0
 40
0.4382239676349681
100
AcDbArc
 50
116.0840460998
 51
132.2934064752
  0
ARC
  5
238
330
1F
100
AcDbEntity
  8
0
  6
Continuous
 62
     7
370
    25
100
AcDbCircle
 10
6.8265508086
 20
5.9996490721
 30
0.0
 40
0.2599842667916308
100
AcDbArc
 50
11.6302021084
 51
58.2130643449
  0
LINE
  5
239
330
1F
100
AcDbEntity
  8
0
  6
Continuous
 62
     7
370
    25
100
AcDbLine
 10
6.9881582923
 20
5.9320989126
 30
0.0
 11
6.9897037977
 21
5.9345218506
 31
0.0
  0
LINE
  5
23A
330
1F
100
AcDbEntity
  8
0
  6
Continuous
 62
     7
370
    25
100
AcDbLine
 10
6.9912439104
 20
5.9345218506
 30
0.0
 11
6.9897037977
 21
5.9345218506
 31
0.0
  0
ARC
  5
23B
330
1F
100
AcDbEntity
  8
0
  6
Continuous
 62
     7
370
    25
100
AcDbCircle
 10
6.8844902514
 20
6.0254413556
 30
0.0
 40
0.185503855886927
100
AcDbArc
 50
359.6556453104
 51
29.7924856863
  0
LINE
  5
23C
330
1F
100
AcDbEntity
  8
0
  6
Continuous
 62
     7
370
    25
100
AcDbLine
 10
6.2456986386
 20
6.1908601695
 30
0.0
 11
6.2516323223
 21
6.1878824776
 31
0.0
  0
LINE
  5
23D
330
1F
100
AcDbEntity
  8
0
  6
Continuous
 62
     7
370
    25
100
AcDbLine
 10
6.8084489436
 20
5.9822793657
 30
0.0
 11
6.8084263353
 21
5.986036037
 31
0.0
  0
LWPOLYLINE
  5
23E
330
1F
100
AcDbEntity
  8
0
  6
Continuous
 62
     7
370
    25
100
AcDbPolyline
 90
        3
 70
   128
 43
0.0
 10
6.9945828347
 20
5.9635531338
 10
6.9939476245
 20
5.9775797305
 10
6.9919788357
 20
6.0209263126
  0
ARC
  5
23F
330
1F
100
AcDbEntity
  8
0
  6
Continuous
 62
     7
370
    25
100
AcDbCircle
 10
6.814328148
 20
6.0629696007
 30
0.0
 40
0.2058528260256178
100
AcDbArc
 50
327.9812106614
 51
331.1218003304
  0
LINE
  5
240
330
1F
100
AcDbEntity
  8
0
  6
Continuous
 62
     7
370
    25
100
AcDbLine
 10
6.9888654628
 20
5.9538269797
 30
0.0
 11
6.9897037977
 21
5.9345218506
 31
0.0
  0
LINE
  5
241
330
1F
100
AcDbEntity
  8
0
  6
Continuous
 62
     7
370
    25
100
AcDbLine
 10
7.0309839083
 20
5.9775863994
 30
0.0
 11
7.0113246565
 21
5.9775864069
 31
0.0
  0
SPLINE
  5
242
330
1F
100
AcDbEntity
  8
0
  6
Continuous
 62
     7
370
    25
100
AcDbSpline
210
0.0
220
0.0
230
1.0
 70
     8
 71
     3
 72
    10
 73
     6
 74
     0
 42
0.000000001
 43
0.00000001
 40
0.0
 40
0.0
 40
0.0
 40
0.0
 40
0.5
 40
0.5
 40
1.0
 40
1.0
 40
1.0
 40
1.0
 10
6.994582839818344
 20
5.963553124062475
 30
0.0
 10
6.994413645799217
 20
5.967291895985941
 30
0.0
 10
6.996286045046583
 20
5.970972030313812
 30
0.0
 10
7.002554652482976
 20
5.976107082884473
 30
0.0
 10
7.006905655940764
 20
5.977586399878407
 30
0.0
 10
7.011324668705469
 20
5.977586399878407
 30
0.0
  0
SPLINE
  5
243
330
1F
100
AcDbEntity
  8
0
  6
Continuous
 62
     7
370
    25
100
AcDbSpline
210
0.0
220
0.0
230
1.0
 70
     8
 71
     3
 72
     8
 73
     4
 74
     0
 42
0.000000001
 43
0.00000001
 40
0.0
 40
0.0
 40
0.0
 40
0.0
 40
0.0009084764481004
 40
0.0009084764481004
 40
0.0009084764481004
 40
0.0009084764481004
 10
7.029951526836228
 20
5.999816981844309
 30
0.0
 10
7.021419373774483
 20
6.006858774356234
 30
0.0
 10
7.012881383970129
 20
6.013895514497264
 30
0.0
 10
7.004336558827037
 20
6.020926310608662
 30
0.0
  0
LINE
  5
244
330
1F
100
AcDbEntity
  8
0
  6
Continuous
 62
     7
370
    25
100
AcDbLine
 10
7.0309839083
 20
5.9775863994
 30
0.0
 11
7.0299515361
 21
5.9998169659
 31
0.0
  0
SPLINE
  5
245
330
1F
100
AcDbEntity
  8
0
  6
Continuous
 62
     7
370
    25
100
AcDbSpline
210
0.0
220
0.0
230
1.0
 70
     8
 71
     3
 72
     8
 73
     4
 74
     0
 42
0.000000001
 43
0.00000001
 40
0.0
 40
0.0
 40
0.0
 40
0.0
 40
0.0009084764481004
 40
0.0009084764481004
 40
0.0009084764481004
 40
0.0009084764481004
 10
7.004336558827038
 20
6.180021349372394
 30
0.0
 10
7.01288138397013
 20
6.173492946971177
 30
0.0
 10
7.021419373774484
 20
6.166959025277873
 30
0.0
 10
7.029951526836228
 20
6.160420412236711
 30
0.0
  0
ARC
  5
246
330
1F
100
AcDbEntity
  8
0
  6
Continuous
 62
     7
370
    25
100
AcDbCircle
 10
6.8756144207
 20
6.0801186898
 30
0.0
 40
0.1739779068271422
100
AcDbArc
 50
332.5120039806
 51
27.4879960194
  0
ARC
  5
247
330
1F
100
AcDbEntity
  8
0
  6
Continuous
 62
     7
370
    25
100
AcDbCircle
 10
6.8740751664
 20
6.059399607
 30
0.0
 40
0.1769569275794107
100
AcDbArc
 50
332.4621796425
 51
3.2372338829
  0
LINE
  5
248
330
1F
100
AcDbEntity
  8
0
  6
Continuous
 62
     7
370
    25
100
AcDbLine
 10
6.9991457574
 20
5.9723477076
 30
0.0
 11
6.9945828347
 21
5.9635531338
 31
0.0
  0
ARC
  5
249
330
1F
100
AcDbEntity
  8
0
  6
Continuous
 62
     7
370
    25
100
AcDbCircle
 10
6.840302633
 20
6.0148299666
 30
0.0
 40
0.1745133729128796
100
AcDbArc
 50
334.5899838132
 51
347.5567092705
  0
ARC
  5
24A
330
1F
100
AcDbEntity
  8
0
  6
Continuous
 62
     7
370
    25
100
AcDbCircle
 10
6.8810605731
 20
6.0077415395
 30
0.0
 40
0.1901798275394769
100
AcDbArc
 50
6.6071608592
 51
28.0962599515
  0
LINE
  5
24B
330
1F
100
AcDbEntity
  8
0
  6
Continuous
 62
     7
370
    25
100
AcDbLine
 10
6.345640139
 20
6.3396468486
 30
0.0
 11
6.3458882729
 21
6.3430994453
 31
0.0
  0
SPLINE
  5
24C
330
1F
100
AcDbEntity
  8
0
  6
Continuous
 62
     7
370
    25
100
AcDbSpline
210
0.0
220
0.0
230
1.0
 70
     8
 71
     3
 72
     8
 73
     4
 74
     0
 42
0.000000001
 43
0.00000001
 40
0.0
 40
0.0
 40
0.0
 40
0.0
 40
0.0009084764481004
 40
0.0009084764481004
 40
0.0009084764481004
 40
0.0009084764481004
 10
6.350746908167857
 20
6.348916258614368
 30
0.0
 10
6.349126800175377
 20
6.346986516179778
 30
0.0
 10
6.347507279184935
 20
6.345047104973029
 30
0.0
 10
6.345888260866128
 20
6.343099460096314
 30
0.0
  0
LWPOLYLINE
  5
24D
330
1F
100
AcDbEntity
  8
0
  6
Continuous
 62
     7
370
    25
100
AcDbPolyline
 90
       11
 70
   128
 43
0.0
 10
6.5810236636
 20
4.5127754027
 10
6.5818956647
 20
4.5089518389
 10
6.5856516759
 20
4.5043019001
 10
6.5919360832
 20
4.500673989
 10
6.5999909121
 20
4.4985056749
 10
6.6088445764
 20
4.4980584966
 10
6.6174292744
 20
4.4993864113
 10
6.624709484
 20
4.5023292387
 10
6.6298071629
 20
4.5065320142
 10
6.6321074018
 20
4.5114878399
 10
6.6322047575
 20
4.5127754027
  0
SPLINE
  5
24E
330
1F
100
AcDbEntity
  8
0
  6
Continuous
 62
     7
370
    25
100
AcDbSpline
210
0.0
220
0.0
230
1.0
 70
    11
 71
     3
 72
    27
 73
    23
 74
     0
 42
0.000000001
 43
0.00000001
 40
0.0
 40
0.0
 40
0.0
 40
0.0
 40
0.0407674133180783
 40
0.0813943639346397
 40
0.1375205077111703
 40
0.2156238152091136
 40
0.2957294811320716
 40
0.3497528881699685
 40
0.3934718456612392
 40
0.4151471908650829
 40
0.4532250541477781
 40
0.4913043504932844
 40
0.5313932418415312
 40
0.5766081204984391
 40
0.6287607796875024
 40
0.6883174171477222
 40
0.7538630564442953
 40
0.8217727361118338
 40
0.8867245179494635
 40
0.9333700039406971
 40
0.9802530475305101
 40
1.0
 40
1.0
 40
1.0
 40
1.0
 10
6.710554270439093
 20
6.821459605432874
 30
0.0
 10
6.708109799759558
 20
6.820837626304164
 30
0.0
 10
6.703229280739005
 20
6.819595811054151
 30
0.0
 10
6.694080286699814
 20
6.819701806565846
 30
0.0
 10
6.683205837515258
 20
6.821843527050833
 30
0.0
 10
6.671973445138566
 20
6.826808651574914
 30
0.0
 10
6.663742254521633
 20
6.833343250147538
 30
0.0
 10
6.66014017121129
 20
6.83977481394544
 30
0.0
 10
6.66026689502598
 20
6.844335302368586
 30
0.0
 10
6.662177711835708
 20
6.848066155032003
 30
0.0
 10
6.665566116380505
 20
6.851251947704695
 30
0.0
 10
6.671512718098724
 20
6.854044647091756
 30
0.0
 10
6.679073480810236
 20
6.855750337341093
 30
0.0
 10
6.688083206327996
 20
6.85615739338368
 30
0.0
 10
6.698170002226862
 20
6.854899250392904
 30
0.0
 10
6.708357940969076
 20
6.851614824784912
 30
0.0
 10
6.717046202743802
 20
6.846241374614966
 30
0.0
 10
6.722387409482677
 20
6.839324029418147
 30
0.0
 10
6.723057881576228
 20
6.832432022036887
 30
0.0
 10
6.719888386705034
 20
6.826699200348147
 30
0.0
 10
6.715261351463684
 20
6.823223336804571
 30
0.0
 10
6.711630373575934
 20
6.821862818560439
 30
0.0
 10
6.710554270439093
 20
6.821459605432874
 30
0.0
  0
SPLINE
  5
24F
330
1F
100
AcDbEntity
  8
0
  6
Continuous
 62
     7
370
    25
100
AcDbSpline
210
0.0
220
0.0
230
1.0
 70
    11
 71
     3
 72
    27
 73
    23
 74
     0
 42
0.000000001
 43
0.00000001
 40
0.0
 40
0.0
 40
0.0
 40
0.0
 40
0.0407674138703285
 40
0.0813943650372373
 40
0.1375205309882926
 40
0.2156238384515333
 40
0.2957295007423819
 40
0.349752935928186
 40
0.3934718940116896
 40
0.4151471980586247
 40
0.4532251077017186
 40
0.4913044045630608
 40
0.531393253152022
 40
0.576608132421427
 40
0.6287608180813349
 40
0.6883174289350008
 40
0.7538630673298221
 40
0.8217727650519082
 40
0.8867245159715789
 40
0.9333700025946893
 40
0.9802530936689782
 40
1.0
 40
1.0
 40
1.0
 40
1.0
 10
6.60595630451658
 20
6.817123602165939
 30
0.0
 10
6.608400775244884
 20
6.817745581378912
 30
0.0
 10
6.613281294362807
 20
6.818987396797159
 30
0.0
 10
6.622430289005787
 20
6.81888139985069
 30
0.0
 10
6.633304744210105
 20
6.816739687179894
 30
0.0
 10
6.64453713456301
 20
6.811774558987434
 30
0.0
 10
6.652768330756275
 20
6.805239961548057
 30
0.0
 10
6.656370402730525
 20
6.798808394081733
 30
0.0
 10
6.656243677447178
 20
6.794247907372088
 30
0.0
 10
6.654332870326147
 20
6.790517052682588
 30
0.0
 10
6.650944458898365
 20
6.787331261702866
 30
0.0
 10
6.644997860241652
 20
6.784538560715044
 30
0.0
 10
6.637437096850958
 20
6.782832874091891
 30
0.0
 10
6.628427374981548
 20
6.782425819818291
 30
0.0
 10
6.618340571370883
 20
6.783683951378239
 30
0.0
 10
6.6081526548715
 20
6.786968397557267
 30
0.0
 10
6.599464361796115
 20
6.792341828856809
 30
0.0
 10
6.594123179915214
 20
6.799259181947539
 30
0.0
 10
6.593452691168467
 20
6.806151186432129
 30
0.0
 10
6.596622190115155
 20
6.811884008828446
 30
0.0
 10
6.601249224766451
 20
6.815359872761356
 30
0.0
 10
6.604880203627363
 20
6.81672039022109
 30
0.0
 10
6.60595630451658
 20
6.817123602165939
 30
0.0
  0
LWPOLYLINE
  5
250
330
1F
100
AcDbEntity
  8
0
  6
Continuous
 62
     7
370
    25
100
AcDbPolyline
 90
        3
 70
   128
 43
0.0
 10
7.0228206917
 20
5.9680726647
 10
7.0191008097
 20
5.9754964425
 10
7.0179844342
 20
5.9775863952
  0
LINE
  5
251
330
1F
100
AcDbEntity
  8
0
  6
Continuous
 62
     7
370
    25
100
AcDbLine
 10
7.0228206917
 20
5.9625903489
 30
0.0
 11
7.0228206917
 21
5.9680726647
 31
0.0
  0
LINE
  5
252
330
1F
100
AcDbEntity
  8
0
  6
Continuous
 62
     7
370
    25
100
AcDbLine
 10
6.7137005219
 20
6.1432088309
 30
0.0
 11
6.6779289546
 21
6.1432088309
 31
0.0
  0
LWPOLYLINE
  5
253
330
1F
100
AcDbEntity
  8
0
  6
Continuous
 62
     7
370
    25
100
AcDbPolyline
 90
        3
 70
   128
 43
0.0
 10
6.7074599442
 20
6.1610953117
 10
6.7056860741
 20
6.1614397693
 10
6.697746309
 20
6.1629284778
  0
LWPOLYLINE
  5
254
330
1F
100
AcDbEntity
  8
0
  6
Continuous
 62
     7
370
    25
100
AcDbPolyline
 90
       39
 70
   128
 43
0.0
 10
7.014269958
 20
5.8326757078
 10
6.9811603235
 20
5.8148380953
 10
6.9459978062
 20
5.7983616773
 10
6.9089500108
 20
5.7833249497
 10
6.8701934609
 20
5.7697995837
 10
6.8299128342
 20
5.7578500433
 10
6.7883001197
 20
5.7475332492
 10
6.7455536068
 20
5.738898384
 10
6.7018770035
 20
5.7319865929
 10
6.6574784253
 20
5.726830789
 10
6.6125695012
 20
5.7234555859
 10
6.567364206
 20
5.7218770437
 10
6.5220779669
 20
5.7221026908
 10
6.4769265999
 20
5.7241314497
 10
6.4321252725
 20
5.7279536365
 10
6.3878874674
 20
5.7335510509
 10
6.3444240484
 20
5.7408970362
 10
6.3019420811
 20
5.7499565613
 10
6.2606440161
 20
5.7606864531
 10
6.2207267037
 20
5.7730356057
 10
6.1823803311
 20
5.7869451452
 10
6.1457875926
 20
5.8023487589
 10
6.1111230039
 20
5.819173121
 10
6.0785516146
 20
5.8373379778
 10
6.0482287058
 20
5.8567568004
 10
6.0202987994
 20
5.8773370581
 10
5.9948949783
 20
5.8989806702
 10
5.9721382858
 20
5.9215844726
 10
5.9521371483
 20
5.9450407606
 10
5.9349869122
 20
5.9692377657
 10
5.9207693252
 20
5.9940601648
 10
5.9095521084
 20
6.0193896864
 10
5.9013887233
 20
6.0451056039
 10
5.8963181121
 20
6.0710853652
 10
5.8943643609
 20
6.0972052056
 10
5.8955368553
 20
6.1233405969
 10
5.8998299433
 20
6.1493670113
 10
5.9072232202
 20
6.1751604446
 10
5.9168516854
 20
6.1988339232
  0
LWPOLYLINE
  5
255
330
1F
100
AcDbEntity
  8
0
  6
Continuous
 62
     7
370
    25
100
AcDbPolyline
 90
       17
 70
   128
 43
0.0
 10
7.1839078083
 20
6.1988339232
 10
7.1859775048
 20
6.1942786226
 10
7.1956735615
 20
6.1687406813
 10
7.2022945006
 20
6.1428774256
 10
7.2058087948
 20
6.1168120962
 10
7.2061996695
 20
6.0906689068
 10
7.2034652579
 20
6.0645724454
 10
7.1976186012
 20
6.0386470753
 10
7.1886875191
 20
6.0130163217
 10
7.1767146485
 20
5.9878023553
 10
7.1617570026
 20
5.9631253187
 10
7.1438858547
 20
5.93910281
 10
7.1231864008
 20
5.9158492991
 10
7.099757241
 20
5.8934756191
 10
7.0737100427
 20
5.872088382
 10
7.045168957
 20
5.8517894929
 10
7.014269958
 20
5.8326757078
  0
LWPOLYLINE
  5
256
330
1F
100
AcDbEntity
  8
0
  6
Continuous
 62
     7
370
    25
100
AcDbPolyline
 90
       46
 70
   128
 43
0.0
 10
7.1965462885
 20
5.9397300413
 10
7.1961041304
 20
5.9340248024
 10
7.1921705455
 20
5.908069363
 10
7.1851102224
 20
5.8823355296
 10
7.1749575662
 20
5.8569487132
 10
7.1617620195
 20
5.8320325888
 10
7.1455878812
 20
5.8077085412
 10
7.1265139432
 20
5.7840950665
 10
7.1046331408
 20
5.7613072111
 10
7.0800520726
 20
5.739455995
 10
7.0528905145
 20
5.7186478618
 10
7.0232807622
 20
5.6989842096
 10
6.9913670796
 20
5.6805608327
 10
6.9573049441
 20
5.6634674866
 10
6.9212602948
 20
5.6477874529
 10
6.8834087769
 20
5.6335971042
 10
6.8439347764
 20
5.6209655858
 10
6.8030306066
 20
5.6099544359
 10
6.7608955548
 20
5.6006173045
 10
6.7177348848
 20
5.5929996776
 10
6.6737588641
 20
5.5871386739
 10
6.6291817271
 20
5.5830628361
 10
6.5842207157
 20
5.5807920259
 10
6.5390948348
 20
5.5803373041
 10
6.494023919
 20
5.5817009008
 10
6.4492275697
 20
5.5848761706
 10
6.4049240398
 20
5.5898476072
 10
6.3613291193
 20
5.5965910385
 10
6.3186552407
 20
5.6050735739
 10
6.2771103123
 20
5.6152539185
 10
6.2368967197
 20
5.6270824407
 10
6.1982104253
 20
5.6405015726
 10
6.1612398015
 20
5.6554458545
 10
6.1261650793
 20
5.6718425529
 10
6.0931570655
 20
5.6896117423
 10
6.0623765915
 20
5.7086668631
 10
6.0339735993
 20
5.7289150692
 10
6.0080865387
 20
5.7502577561
 10
5.9848414019
 20
5.7725908784
 10
5.9643515803
 20
5.7958056913
 10
5.9467167955
 20
5.819789068
 10
5.9320230212
 20
5.8444241737
 10
5.9203417898
 20
5.8695909856
 10
5.9117300759
 20
5.895166869
 10
5.9062297514
 20
5.9210272511
 10
5.9042132051
 20
5.9397300413
  0
ARC
  5
257
330
1F
100
AcDbEntity
  8
0
  6
Continuous
 62
     7
370
    25
100
AcDbCircle
 10
6.5442994317
 20
6.2426407381
 30
0.0
 40
0.8444182418189151
100
AcDbArc
 50
249.7605943965
 51
270.9849274142
  0
SPLINE
  5
258
330
1F
100
AcDbEntity
  8
0
  6
Continuous
 62
     7
370
    25
100
AcDbSpline
210
0.0
220
0.0
230
1.0
 70
     8
 71
     3
 72
    10
 73
     6
 74
     0
 42
0.000000001
 43
0.00000001
 40
0.0
 40
0.0
 40
0.0
 40
0.0
 40
0.5
 40
0.5
 40
1.0
 40
1.0
 40
1.0
 40
1.0
 10
6.142029367670798
 20
5.625955525574984
 30
0.0
 10
6.159438333735027
 20
5.596342997620003
 30
0.0
 10
6.177198919097587
 20
5.566858916895017
 30
0.0
 10
6.213761718937842
 20
5.5082712646354
 30
0.0
 10
6.232555871118966
 20
5.479164747927774
 30
0.0
 10
6.252178353853053
 20
5.45036082202092
 30
0.0
  0
SPLINE
  5
259
330
1F
100
AcDbEntity
  8
0
  6
Continuous
 62
     7
370
    25
100
AcDbSpline
210
0.0
220
0.0
230
1.0
 70
     8
 71
     3
 72
    12
 73
     8
 74
     0
 42
0.000000001
 43
0.00000001
 40
0.0
 40
0.0
 40
0.0
 40
0.0
 40
0.5
 40
0.5
 40
0.75
 40
0.75
 40
1.0
 40
1.0
 40
1.0
 40
1.0
 10
6.082185048672016
 20
5.661138440599502
 30
0.0
 10
6.092267962244001
 20
5.652432328473716
 30
0.0
 10
6.102359063753452
 20
5.645017357430221
 30
0.0
 10
6.117509602191944
 20
5.636084586632013
 30
0.0
 10
6.122578018955082
 20
5.633470089125955
 30
0.0
 10
6.132449231270837
 20
5.629109952221477
 30
0.0
 10
6.137285406444702
 20
5.627341752120002
 30
0.0
 10
6.142029367670803
 20
5.625955525574962
 30
0.0
  0
ARC
  5
25A
330
1F
100
AcDbEntity
  8
0
  6
Continuous
 62
     7
370
    25
100
AcDbCircle
 10
6.2757862327
 20
5.7471425561
 30
0.0
 40
0.2723977208564454
100
AcDbArc
 50
205.5887764811
 51
228.6163618199
  0
ARC
  5
25B
330
1F
100
AcDbEntity
  8
0
  6
Continuous
 62
     7
370
    25
100
AcDbCircle
 10
6.8280445154
 20
5.7448167198
 30
0.0
 40
0.2686242611136089
100
AcDbArc
 50
311.2104233178
 51
334.5757175266
  0
SPLINE
  5
25C
330
1F
100
AcDbEntity
  8
0
  6
Continuous
 62
     7
370
    25
100
AcDbSpline
210
0.0
220
0.0
230
1.0
 70
     8
 71
     3
 72
    12
 73
     8
 74
     0
 42
0.000000001
 43
0.00000001
 40
0.0
 40
0.0
 40
0.0
 40
0.0
 40
0.5
 40
0.5
 40
0.75
 40
0.75
 40
1.0
 40
1.0
 40
1.0
 40
1.0
 10
6.959295456236592
 20
5.626917408802183
 30
0.0
 10
6.968588153340312
 20
5.629396598633635
 30
0.0
 10
6.978204484306815
 20
5.633358486195265
 30
0.0
 10
6.99317784135189
 20
5.641815870099869
 30
0.0
 10
6.998278008043358
 20
5.645071570871471
 30
0.0
 10
7.00838924420336
 20
5.652247055929431
 30
0.0
 10
7.013432601695022
 20
5.656182188636912
 30
0.0
 10
7.018464588513207
 20
5.660439496771825
 30
0.0
  0
SPLINE
  5
25D
330
1F
100
AcDbEntity
  8
0
  6
Continuous
 62
     7
370
    25
100
AcDbSpline
210
0.0
220
0.0
230
1.0
 70
     8
 71
     3
 72
    10
 73
     6
 74
     0
 42
0.000000001
 43
0.00000001
 40
0.0
 40
0.0
 40
0.0
 40
0.0
 40
0.5000000000000001
 40
0.5000000000000001
 40
1.0
 40
1.0
 40
1.0
 40
1.0
 10
6.848581139817826
 20
5.450360822020919
 30
0.0
 10
6.868309935432914
 20
5.479320805058197
 30
0.0
 10
6.887201526298405
 20
5.508586515588667
 30
0.0
 10
6.923950732477981
 20
5.56749552021385
 30
0.0
 10
6.941800105361118
 20
5.597141824250577
 30
0.0
 10
6.959295456236493
 20
5.626917408802041
 30
0.0
  0
ARC
  5
25E
330
1F
100
AcDbEntity
  8
0
  6
Continuous
 62
     7
370
    25
100
AcDbCircle
 10
6.5689446184
 20
6.1945416743
 30
0.0
 40
0.7949853481570567
100
AcDbArc
 50
276.1093576272
 51
290.5944219822
  0
SPLINE
  5
25F
330
1F
100
AcDbEntity
  8
0
  6
Continuous
 62
     7
370
    25
100
AcDbSpline
210
0.0
220
0.0
230
1.0
 70
     8
 71
     3
 72
     8
 73
     4
 74
     0
 42
0.000000001
 43
0.00000001
 40
0.0
 40
0.0
 40
0.0
 40
0.0
 40
1.0
 40
1.0
 40
1.0
 40
1.0
 10
6.630887414746429
 20
5.48118521631885
 30
0.0
 10
6.638607995653738
 20
5.466520491121001
 30
0.0
 10
6.646467629197533
 20
5.452061729283504
 30
0.0
 10
6.654508768909206
 20
5.437871812548167
 30
0.0
  0
SPLINE
  5
260
330
1F
100
AcDbEntity
  8
0
  6
Continuous
 62
     7
370
    25
100
AcDbSpline
210
0.0
220
0.0
230
1.0
 70
     8
 71
     3
 72
     8
 73
     4
 74
     0
 42
0.000000001
 43
0.00000001
 40
0.0
 40
0.0
 40
0.0
 40
0.0
 40
1.0
 40
1.0
 40
1.0
 40
1.0
 10
6.591731217952217
 20
5.478819368113974
 30
0.0
 10
6.604783283550281
 20
5.478612967282579
 30
0.0
 10
6.617835349148344
 20
5.479401583350757
 30
0.0
 10
6.630887414746407
 20
5.481185216318509
 30
0.0
  0
SPLINE
  5
261
330
1F
100
AcDbEntity
  8
0
  6
Continuous
 62
     7
370
    25
100
AcDbSpline
210
0.0
220
0.0
230
1.0
 70
     8
 71
     3
 72
     8
 73
     4
 74
     0
 42
0.000000001
 43
0.00000001
 40
0.0
 40
0.0
 40
0.0
 40
0.0
 40
1.0
 40
1.0
 40
1.0
 40
1.0
 10
6.562100144474568
 20
5.432288410785409
 30
0.0
 10
6.572187102233244
 20
5.447573641426707
 30
0.0
 10
6.582046375221507
 20
5.463102993531724
 30
0.0
 10
6.591731217952211
 20
5.478819368113979
 30
0.0
  0
LINE
  5
262
330
1F
100
AcDbEntity
  8
0
  6
Continuous
 62
     7
370
    25
100
AcDbLine
 10
6.5588144575
 20
5.3983472576
 30
0.0
 11
6.5621001538
 21
5.4322884121
 31
0.0
  0
LINE
  5
263
330
1F
100
AcDbEntity
  8
0
  6
Continuous
 62
     7
370
    25
100
AcDbLine
 10
6.9409299432
 20
5.4661123755
 30
0.0
 11
6.9592954791
 21
5.6269173977
 31
0.0
  0
LINE
  5
264
330
1F
100
AcDbEntity
  8
0
  6
Continuous
 62
     7
370
    25
100
AcDbLine
 10
6.8737314977
 20
5.436181751
 30
0.0
 11
6.9409299432
 21
5.4661123755
 31
0.0
  0
LINE
  5
265
330
1F
100
AcDbEntity
  8
0
  6
Continuous
 62
     7
370
    25
100
AcDbLine
 10
6.8737314977
 20
5.436181751
 30
0.0
 11
6.8078912549
 21
5.436181751
 31
0.0
  0
LINE
  5
266
330
1F
100
AcDbEntity
  8
0
  6
Continuous
 62
     7
370
    25
100
AcDbLine
 10
6.1602850286
 20
5.4661123792
 30
0.0
 11
6.2279735129
 21
5.4361817436
 31
0.0
  0
LINE
  5
267
330
1F
100
AcDbEntity
  8
0
  6
Continuous
 62
     7
370
    25
100
AcDbLine
 10
6.1420293711
 20
5.6259555291
 30
0.0
 11
6.1602850286
 21
5.4661123792
 31
0.0
  0
LINE
  5
268
330
1F
100
AcDbEntity
  8
0
  6
Continuous
 62
     7
370
    25
100
AcDbLine
 10
6.2928682388
 20
5.436181751
 30
0.0
 11
6.2279735129
 21
5.4361817436
 31
0.0
  0
LINE
  5
269
330
1F
100
AcDbEntity
  8
0
  6
Continuous
 62
     7
370
    25
100
AcDbLine
 10
6.6308874093
 20
5.481185215
 30
0.0
 11
6.6308874093
 21
5.3590047709
 31
0.0
  0
LINE
  5
26A
330
1F
100
AcDbEntity
  8
0
  6
Continuous
 62
     7
370
    25
100
AcDbLine
 10
6.5917312343
 20
5.4788193623
 30
0.0
 11
6.5917312343
 21
5.3566389183
 31
0.0
  0
LINE
  5
26B
330
1F
100
AcDbEntity
  8
0
  6
Continuous
 62
     7
370
    25
100
AcDbLine
 10
6.6308874093
 20
5.3590047709
 30
0.0
 11
6.5917312343
 21
5.3566389183
 31
0.0
  0
LINE
  5
26C
330
1F
100
AcDbEntity
  8
0
  6
Continuous
 62
     7
370
    25
100
AcDbLine
 10
6.5621001538
 20
5.4322884121
 30
0.0
 11
6.5621001538
 21
5.3716039524
 31
0.0
  0
LINE
  5
26D
330
1F
100
AcDbEntity
  8
0
  6
Continuous
 62
     7
370
    25
100
AcDbLine
 10
6.5917312343
 20
5.3566389183
 30
0.0
 11
6.5621001538
 21
5.3716039524
 31
0.0
  0
LINE
  5
26E
330
1F
100
AcDbEntity
  8
0
  6
Continuous
 62
     7
370
    25
100
AcDbLine
 10
6.6545087785
 20
5.4378718171
 30
0.0
 11
6.6545087785
 21
5.3771873574
 31
0.0
  0
LINE
  5
26F
330
1F
100
AcDbEntity
  8
0
  6
Continuous
 62
     7
370
    25
100
AcDbLine
 10
6.6545087785
 20
5.3771873574
 30
0.0
 11
6.6308874093
 21
5.3590047709
 31
0.0
  0
LINE
  5
270
330
1F
100
AcDbEntity
  8
0
  6
Continuous
 62
     7
370
    25
100
AcDbLine
 10
6.1005505628
 20
5.5003334066
 30
0.0
 11
6.1602850286
 21
5.4661123792
 31
0.0
  0
LINE
  5
271
330
1F
100
AcDbEntity
  8
0
  6
Continuous
 62
     7
370
    25
100
AcDbLine
 10
6.1005505628
 20
5.5003334066
 30
0.0
 11
6.0821850269
 21
5.6611384289
 31
0.0
  0
LINE
  5
272
330
1F
100
AcDbEntity
  8
0
  6
Continuous
 62
     7
370
    25
100
AcDbLine
 10
7.0184645818
 20
5.6604394984
 30
0.0
 11
7.0002089243
 21
5.5005963486
 31
0.0
  0
LINE
  5
273
330
1F
100
AcDbEntity
  8
0
  6
Continuous
 62
     7
370
    25
100
AcDbLine
 10
6.9409299432
 20
5.4661123755
 30
0.0
 11
7.0002089243
 21
5.5005963486
 31
0.0
  0
LINE
  5
274
330
1F
100
AcDbEntity
  8
0
  6
Continuous
 62
     7
370
    25
100
AcDbLine
 10
6.5621001538
 20
5.3716039524
 30
0.0
 11
6.5545524041
 21
5.3983184439
 31
0.0
  0
ARC
  5
275
330
1F
100
AcDbEntity
  8
0
  6
Continuous
 62
     8
370
    25
100
AcDbCircle
 10
6.7882013598
 20
6.6033735307
 30
0.0
 40
0.0094467586751792
100
AcDbArc
 50
188.8920486029
 51
261.1141599607
  0
LWPOLYLINE
  5
276
330
1F
100
AcDbEntity
  8
0
  6
Continuous
 62
     8
370
    25
100
AcDbPolyline
 90
        7
 70
   128
 43
0.0
 10
6.8103641997
 20
6.6019133161
 10
6.8102294833
 20
6.6007266779
 10
6.8082543651
 20
6.5973677424
 10
6.8042029803
 20
6.5947008144
 10
6.7986920574
 20
6.5931319444
 10
6.7925606373
 20
6.5928999466
 10
6.7867421547
 20
6.5940401513
  0
LWPOLYLINE
  5
277
330
1F
100
AcDbEntity
  8
0
  6
Continuous
 62
     8
370
    25
100
AcDbPolyline
 90
        4
 70
   128
 43
0.0
 10
6.8370034977
 20
6.335811871
 10
6.832985207
 20
6.3350605718
 10
6.8308622418
 20
6.335186609
 10
6.8306446916
 20
6.335414063
  0
ARC
  5
278
330
1F
100
AcDbEntity
  8
0
  6
Continuous
 62
     8
370
    25
100
AcDbCircle
 10
6.8308202895
 20
6.3806804782
 30
0.0
 40
0.0452926482008426
100
AcDbArc
 50
277.8463392478
 51
310.4826653824
  0
LWPOLYLINE
  5
279
330
1F
100
AcDbEntity
  8
0
  6
Continuous
 62
     8
370
    25
100
AcDbPolyline
 90
        7
 70
   128
 43
0.0
 10
6.2681037633
 20
6.8237805909
 10
6.2732127853
 20
6.8218098827
 10
6.2792393004
 20
6.8211178561
 10
6.2852658059
 20
6.8218098808
 10
6.2903748344
 20
6.8237805927
 10
6.2937885806
 20
6.826729974
 10
6.2949873326
 20
6.8302090015
  0
LWPOLYLINE
  5
27A
330
1F
100
AcDbEntity
  8
0
  6
Continuous
 62
     8
370
    25
100
AcDbPolyline
 90
        3
 70
   128
 43
0.0
 10
6.2634912715
 20
6.8302089996
 10
6.2646900267
 20
6.8267299665
 10
6.2681037633
 20
6.8237805909
  0
LWPOLYLINE
  5
27B
330
1F
100
AcDbEntity
  8
0
  6
Continuous
 62
     8
370
    25
100
AcDbPolyline
 90
        6
 70
   128
 43
0.0
 10
6.1954223384
 20
6.6200120766
 10
6.1996616085
 20
6.6156029368
 10
6.2048281559
 20
6.612499954
 10
6.2101354283
 20
6.6111755131
 10
6.2147754448
 20
6.6118312519
 10
6.217602649
 20
6.6138107104
  0
LWPOLYLINE
  5
27C
330
1F
100
AcDbEntity
  8
0
  6
Continuous
 62
     8
370
    25
100
AcDbPolyline
 90
        5
 70
   128
 43
0.0
 10
6.1938920067
 20
6.6345425138
 10
6.193463188
 20
6.6339975619
 10
6.1920677607
 20
6.6299671943
 10
6.1927557388
 20
6.6250561547
 10
6.1954223384
 20
6.6200120766
  0
LWPOLYLINE
  5
27D
330
1F
100
AcDbEntity
  8
0
  6
Continuous
 62
     8
370
    25
100
AcDbPolyline
 90
        9
 70
   128
 43
0.0
 10
6.2258610758
 20
6.174039206
 10
6.2261093847
 20
6.1767742688
 10
6.2248984536
 20
6.1820349727
 10
6.2217533331
 20
6.1870858022
 10
6.217152865
 20
6.191157806
 10
6.2117973879
 20
6.1936310618
 10
6.2065022234
 20
6.1941290594
 10
6.2020735505
 20
6.1925759535
 10
6.2005825921
 20
6.1912951638
  0
LINE
  5
27E
330
1F
100
AcDbEntity
  8
0
  6
Continuous
 62
     8
370
    25
100
AcDbLine
 10
6.888429832
 20
5.9130648469
 30
0.0
 11
6.8880541051
 21
5.9460765489
 31
0.0
  0
SPLINE
  5
27F
330
1F
100
AcDbEntity
  8
0
  6
Continuous
 62
     8
370
    25
100
AcDbSpline
210
0.0
220
0.0
230
1.0
 70
     8
 71
     3
 72
     9
 73
     5
 74
     0
 42
0.000000001
 43
0.00000001
 40
0.0
 40
0.0
 40
0.0
 40
0.0
 40
0.950548425239689
 40
1.0
 40
1.0
 40
1.0
 40
1.0
 10
6.931705983841354
 20
5.949286600779933
 30
0.0
 10
6.931826150660187
 20
5.935756898142015
 30
0.0
 10
6.931952569068384
 20
5.92152332278839
 30
0.0
 10
6.932072524870997
 20
5.90729332073645
 30
0.0
 10
6.932078456874338
 20
5.906589624726139
 30
0.0
  0
ARC
  5
280
330
1F
100
AcDbEntity
  8
0
  6
Continuous
 62
     8
370
    25
100
AcDbCircle
 10
6.6838057686
 20
6.1289281581
 30
0.0
 40
0.043217663332082
100
AcDbArc
 50
32.0748081855
 51
63.658468507
  0
LINE
  5
281
330
1F
100
AcDbEntity
  8
0
  6
Continuous
 62
     8
370
    25
100
AcDbLine
 10
6.3016660952
 20
6.2211095851
 30
0.0
 11
6.3033261151
 21
6.2395097495
 31
0.0
  0
LINE
  5
282
330
1F
100
AcDbEntity
  8
0
  6
Continuous
 62
     8
370
    25
100
AcDbLine
 10
6.2385344959
 20
6.2720240331
 30
0.0
 11
6.2373727603
 21
6.2599411621
 31
0.0
  0
ENDSEC
  0
SECTION
  2
OBJECTS
  0
DICTIONARY
  5
C
330
0
100
AcDbDictionary
281
     1
  3
ACAD_GROUP
350
D
  3
ACAD_LAYOUT
350
1A
  3
ACAD_MLINESTYLE
350
17
  3
ACAD_PLOTSETTINGS
350
19
  3
ACAD_PLOTSTYLENAME
350
E
  3
ACAD_SCALELIST
350
47
  0
DICTIONARY
  5
D
102
{ACAD_REACTORS
330
C
102
}
330
C
100
AcDbDictionary
281
     1
  0
DICTIONARY
  5
1A
102
{ACAD_REACTORS
330
C
102
}
330
C
100
AcDbDictionary
281
     1
  3
Layout1
350
1E
  3
Layout2
350
26
  3
Model
350
22
  0
DICTIONARY
  5
17
102
{ACAD_REACTORS
330
C
102
}
330
C
100
AcDbDictionary
281
     1
  3
Standard
350
18
  0
DICTIONARY
  5
19
102
{ACAD_REACTORS
330
C
102
}
330
C
100
AcDbDictionary
281
     1
  0
ACDBDICTIONARYWDFLT
  5
E
102
{ACAD_REACTORS
330
C
102
}
330
C
100
AcDbDictionary
281
     1
  3
Normal
350
F
100
AcDbDictionaryWithDefault
340
F
  0
DICTIONARY
  5
47
102
{ACAD_REACTORS
330
C
102
}
330
C
100
AcDbDictionary
281
     1
  3
A0
350
48
  3
A1
350
49
  3
A2
350
4A
  3
A3
350
4B
  3
A4
350
4C
  3
A5
350
4D
  3
A6
350
4E
  3
A7
350
4F
  3
A8
350
50
  3
A9
350
51
  3
B0
350
52
  3
B1
350
53
  3
B2
350
54
  3
B3
350
55
  3
B4
350
56
  3
B5
350
57
  3
B6
350
58
  3
B7
350
59
  3
B8
350
5A
  3
B9
350
5B
  3
C0
350
5C
  3
C1
350
5D
  3
C2
350
5E
  3
C3
350
5F
  3
C4
350
60
  3
C5
350
61
  3
C6
350
62
  3
C7
350
63
  3
C8
350
64
  3
C9
350
65
  3
D0
350
66
  3
D1
350
67
  3
D2
350
68
  0
LAYOUT
  5
1E
102
{ACAD_REACTORS
330
1A
102
}
330
1A
100
AcDbPlotSettings
  1

  2
none_device
  4

  6

 40
0.0
 41
0.0
 42
0.0
 43
0.0
 44
0.0
 45
0.0
 46
0.0
 47
0.0
 48
0.0
 49
0.0
140
0.0
141
0.0
142
1.0
143
1.0
 70
   688
 72
     0
 73
     0
 74
     5
  7

 75
    16
147
1.0
148
0.0
149
0.0
100
AcDbLayout
  1
Layout1
 70
     1
 71
     1
 10
0.0
 20
0.0
 11
12.0
 21
9.0
 12
0.0
 22
0.0
 32
0.0
 14
1.0000000000E+20
 24
1.0000000000E+20
 34
1.0000000000E+20
 15
-1.0000000000E+20
 25
-1.0000000000E+20
 35
-1.0000000000E+20
146
0.0
 13
0.0
 23
0.0
 33
0.0
 16
1.0
 26
0.0
 36
0.0
 17
0.0
 27
1.0
 37
0.0
 76
     0
330
1B
  0
LAYOUT
  5
26
102
{ACAD_REACTORS
330
1A
102
}
330
1A
100
AcDbPlotSettings
  1

  2
none_device
  4

  6

 40
0.0
 41
0.0
 42
0.0
 43
0.0
 44
0.0
 45
0.0
 46
0.0
 47
0.0
 48
0.0
 49
0.0
140
0.0
141
0.0
142
1.0
143
1.0
 70
   688
 72
     0
 73
     0
 74
     5
  7

 75
    16
147
1.0
148
0.0
149
0.0
100
AcDbLayout
  1
Layout2
 70
     1
 71
     2
 10
0.0
 20
0.0
 11
0.0
 21
0.0
 12
0.0
 22
0.0
 32
0.0
 14
0.0
 24
0.0
 34
0.0
 15
0.0
 25
0.0
 35
0.0
146
0.0
 13
0.0
 23
0.0
 33
0.0
 16
1.0
 26
0.0
 36
0.0
 17
0.0
 27
1.0
 37
0.0
 76
     0
330
23
  0
LAYOUT
  5
22
102
{ACAD_REACTORS
330
1A
102
}
330
1A
100
AcDbPlotSettings
  1

  2
none_device
  4
Letter_(8.50_x_11.00_Inches)
  6

 40
6.35
 41
6.35
 42
6.35000508
 43
6.35000508
 44
215.9
 45
279.4
 46
0.0
 47
0.0
 48
0.0
 49
0.0
140
0.0
141
0.0
142
1.0
143
1.0
 70
  1712
 72
     0
 73
     0
 74
     0
  7

 75
     0
147
1.0
148
0.0
149
0.0
100
AcDbLayout
  1
Model
 70
     1
 71
     0
 10
0.0
 20
0.0
 11
17.0
 21
11.0
 12
0.0
 22
0.0
 32
0.0
 14
0.0
 24
0.0
 34
0.0
 15
17.0
 25
11.0
 35
0.0
146
0.0
 13
0.0
 23
0.0
 33
0.0
 16
1.0
 26
0.0
 36
0.0
 17
0.0
 27
1.0
 37
0.0
 76
     0
330
1F
331
29
  0
MLINESTYLE
  5
18
102
{ACAD_REACTORS
330
17
102
}
330
17
100
AcDbMlineStyle
  2
Standard
 70
     0
  3

 62
   256
 51
90.0
 52
90.0
 71
     2
 49
0.5
 62
   256
  6
BYLAYER
 49
-0.5
 62
   256
  6
BYLAYER
  0
ACDBPLACEHOLDER
  5
F
102
{ACAD_REACTORS
330
E
102
}
330
E
  0
SCALE
  5
48
102
{ACAD_REACTORS
330
47
102
}
330
47
100
AcDbScale
 70
     0
300
1:1
140
1.0
141
1.0
290
     1
  0
SCALE
  5
49
102
{ACAD_REACTORS
330
47
102
}
330
47
100
AcDbScale
 70
     0
300
1:2
140
1.0
141
2.0
290
     0
  0
SCALE
  5
4A
102
{ACAD_REACTORS
330
47
102
}
330
47
100
AcDbScale
 70
     0
300
1:4
140
1.0
141
4.0
290
     0
  0
SCALE
  5
4B
102
{ACAD_REACTORS
330
47
102
}
330
47
100
AcDbScale
 70
     0
300
1:5
140
1.0
141
5.0
290
     0
  0
SCALE
  5
4C
102
{ACAD_REACTORS
330
47
102
}
330
47
100
AcDbScale
 70
     0
300
1:8
140
1.0
141
8.0
290
     0
  0
SCALE
  5
4D
102
{ACAD_REACTORS
330
47
102
}
330
47
100
AcDbScale
 70
     0
300
1:10
140
1.0
141
10.0
290
     0
  0
SCALE
  5
4E
102
{ACAD_REACTORS
330
47
102
}
330
47
100
AcDbScale
 70
     0
300
1:16
140
1.0
141
16.0
290
     0
  0
SCALE
  5
4F
102
{ACAD_REACTORS
330
47
102
}
330
47
100
AcDbScale
 70
     0
300
1:20
140
1.0
141
20.0
290
     0
  0
SCALE
  5
50
102
{ACAD_REACTORS
330
47
102
}
330
47
100
AcDbScale
 70
     0
300
1:30
140
1.0
141
30.0
290
     0
  0
SCALE
  5
51
102
{ACAD_REACTORS
330
47
102
}
330
47
100
AcDbScale
 70
     0
300
1:40
140
1.0
141
40.0
290
     0
  0
SCALE
  5
52
102
{ACAD_REACTORS
330
47
102
}
330
47
100
AcDbScale
 70
     0
300
1:50
140
1.0
141
50.0
290
     0
  0
SCALE
  5
53
102
{ACAD_REACTORS
330
47
102
}
330
47
100
AcDbScale
 70
     0
300
1:100
140
1.0
141
100.0
290
     0
  0
SCALE
  5
54
102
{ACAD_REACTORS
330
47
102
}
330
47
100
AcDbScale
 70
     0
300
2:1
140
2.0
141
1.0
290
     0
  0
SCALE
  5
55
102
{ACAD_REACTORS
330
47
102
}
330
47
100
AcDbScale
 70
     0
300
4:1
140
4.0
141
1.0
290
     0
  0
SCALE
  5
56
102
{ACAD_REACTORS
330
47
102
}
330
47
100
AcDbScale
 70
     0
300
8:1
140
8.0
141
1.0
290
     0
  0
SCALE
  5
57
102
{ACAD_REACTORS
330
47
102
}
330
47
100
AcDbScale
 70
     0
300
10:1
140
10.0
141
1.0
290
     0
  0
SCALE
  5
58
102
{ACAD_REACTORS
330
47
102
}
330
47
100
AcDbScale
 70
     0
300
100:1
140
100.0
141
1.0
290
     0
  0
SCALE
  5
59
102
{ACAD_REACTORS
330
47
102
}
330
47
100
AcDbScale
 70
     0
300
1/128" = 1'-0"
140
0.0078125
141
12.0
290
     0
  0
SCALE
  5
5A
102
{ACAD_REACTORS
330
47
102
}
330
47
100
AcDbScale
 70
     0
300
1/64" = 1'-0"
140
0.015625
141
12.0
290
     0
  0
SCALE
  5
5B
102
{ACAD_REACTORS
330
47
102
}
330
47
100
AcDbScale
 70
     0
300
1/32" = 1'-0"
140
0.03125
141
12.0
290
     0
  0
SCALE
  5
5C
102
{ACAD_REACTORS
330
47
102
}
330
47
100
AcDbScale
 70
     0
300
1/16" = 1'-0"
140
0.0625
141
12.0
290
     0
  0
SCALE
  5
5D
102
{ACAD_REACTORS
330
47
102
}
330
47
100
AcDbScale
 70
     0
300
3/32" = 1'-0"
140
0.09375
141
12.0
290
     0
  0
SCALE
  5
5E
102
{ACAD_REACTORS
330
47
102
}
330
47
100
AcDbScale
 70
     0
300
1/8" = 1'-0"
140
0.125
141
12.0
290
     0
  0
SCALE
  5
5F
102
{ACAD_REACTORS
330
47
102
}
330
47
100
AcDbScale
 70
     0
300
3/16" = 1'-0"
140
0.1875
141
12.0
290
     0
  0
SCALE
  5
60
102
{ACAD_REACTORS
330
47
102
}
330
47
100
AcDbScale
 70
     0
300
1/4" = 1'-0"
140
0.25
141
12.0
290
     0
  0
SCALE
  5
61
102
{ACAD_REACTORS
330
47
102
}
330
47
100
AcDbScale
 70
     0
300
3/8" = 1'-0"
140
0.375
141
12.0
290
     0
  0
SCALE
  5
62
102
{ACAD_REACTORS
330
47
102
}
330
47
100
AcDbScale
 70
     0
300
1/2" = 1'-0"
140
0.5
141
12.0
290
     0
  0
SCALE
  5
63
102
{ACAD_REACTORS
330
47
102
}
330
47
100
AcDbScale
 70
     0
300
3/4" = 1'-0"
140
0.75
141
12.0
290
     0
  0
SCALE
  5
64
102
{ACAD_REACTORS
330
47
102
}
330
47
100
AcDbScale
 70
     0
300
1" = 1'-0"
140
1.0
141
12.0
290
     0
  0
SCALE
  5
65
102
{ACAD_REACTORS
330
47
102
}
330
47
100
AcDbScale
 70
     0
300
1-1/2" = 1'-0"
140
1.5
141
12.0
290
     0
  0
SCALE
  5
66
102
{ACAD_REACTORS
330
47
102
}
330
47
100
AcDbScale
 70
     0
300
3" = 1'-0"
140
3.0
141
12.0
290
     0
  0
SCALE
  5
67
102
{ACAD_REACTORS
330
47
102
}
330
47
100
AcDbScale
 70
     0
300
6" = 1'-0"
140
6.0
141
12.0
290
     0
  0
SCALE
  5
68
102
{ACAD_REACTORS
330
47
102
}
330
47
100
AcDbScale
 70
     0
300
1'-0" = 1'-0"
140
12.0
141
12.0
290
     0
  0
ENDSEC
  0
EOF
